Завантажити та скачати торренти українською


Побачення моєї мрії / Employee of the Month (2006) 720p Ukr/Eng | Sub Eng

Нові коментарі

Нова тема   Відповісти
Автор Повідомлення
4erkov 
Відео Гуртом - запис з ТБ
Відео Гуртом - запис з ТБ


З нами з: 09.10.10
Востаннє: 06.12.16
Повідомлень: 1846

2012-08-23 13:12  
Побачення моєї мрії / Employee of the Month (2006) 720p Ukr/Eng | Sub Eng

Побачення моєї мрії / Employee of the Month (2006) 720p Ukr/Eng | Sub Eng

Жанр: комедія, мелодрама
Країна: США

Кіностудія / кінокомпанія: Lions Gate Films
Режисер: Грег Кулідж
Актори: Дейн Кук, Джессіка Сімпсон, Декс Шепард, Енді Дік, Тім Беглі, Брайан Джордж, Ефрен Рамірез, Марселло Тедфорд, Денні Вудберн, Харланд Вільямс
Сюжет:
Вся чоловіча половина магазину, де працюють Зак і Вінс, втрачає голову від нової співробітниці - чарівної касирки Емі. Але як звернути на себе увагу цієї чарівної блондинки? Є тільки один безпрограшний варіант: отримати почесне звання "Співробітника місяця". Для досягнення жаданої мети Зак і Вінс прикладуть всі зусилля, що стане причиною безлічі комічних ситуацій і забавних пригод. Так кому ж дістанеться серце красуні?

Тривалість: 01:48:07
Якість: [ріп від CtrlHD]
Відео:
кодек:
розмір кадру: 1280 х 688
бітрейт: 4115 кб/с

Аудіо:
мова: українська
переклад: багатоголосий закадровий
кодек: 2.0
бітрейт: 192 кб/с

Аудіо # 2:
мова: англійська
переклад: оригінал
кодек: 5.1
бітрейт: 1510 кб/с

Субтитри:
мова: англійська
тип: програмні (м'які)
формат: *.srt
Джерело озвучення:
Ролі озвучили: Володимир Терещук, Анатолій Пашнін, Дмитро Терещук (можл.), Світлана Шекера (можл.)
Скріншоти





Media-Info
General
Unique ID : 172270923089460712039093939272140553875 (0x819A2C454E47A16D98DC600193A17E93)
Complete name : D:\Релізи\Movies\Employee of the Month (2006) [Ukr,Eng] 720p [Hurtom].mkv
Format : Matroska
Format version : Version 2
File size : 4.39 GiB
Duration : 1h 48mn
Overall bit rate : 5 816 Kbps
Movie name : Hurtom
Encoded date : UTC 2012-08-22 11:03:04
Writing application : mkvmerge v5.6.0 ('Kenya Kane') built on May 27 2012 16:44:04
Writing library : libebml v1.2.3 + libmatroska v1.3.0

Video
ID : 1
Format : AVC
Format/Info : Advanced Video Codec
Format profile : [email protected]
Format settings, CABAC : Yes
Format settings, ReFrames : 5 frames
Codec ID : V_MPEG4/ISO/AVC
Duration : 1h 48mn
Bit rate : 4 115 Kbps
Width : 1 280 pixels
Height : 688 pixels
Display aspect ratio : 1.85:1
Frame rate : 23.976 fps
Color space : YUV
Chroma subsampling : 4:2:0
Bit depth : 8 bits
Scan type : Progressive
Bits/(Pixel*Frame) : 0.195
Stream size : 3.02 GiB (69%)
Title :
Writing library : core 61 r938M 9881ffd
Encoding settings : cabac=1 / ref=5 / deblock=1:-3:-3 / analyse=0x3:0x113 / me=umh / subme=7 / psy_rd=1.0:1.0 / brdo=1 / mixed_ref=1 / me_range=16 / chroma_me=1 / trellis=2 / 8x8dct=1 / cqm=2 / deadzone=21,11 / chroma_qp_offset=-4 / threads=6 / nr=0 / decimate=1 / mbaff=0 / bframes=5 / b_pyramid=1 / b_adapt=1 / b_bias=0 / direct=3 / wpredb=1 / bime=1 / keyint=250 / keyint_min=25 / scenecut=40(pre) / rc=2pass / bitrate=4115 / ratetol=1.0 / rceq='blurCplx^(1-qComp)' / qcomp=1.00 / qpmin=10 / qpmax=51 / qpstep=4 / cplxblur=20.0 / qblur=0.5 / ip_ratio=1.40 / pb_ratio=1.30 / aq=2:1.00
Language : English
Default : Yes
Forced : No

Audio #1
ID : 2
Format : AC-3
Format/Info : Audio Coding 3
Mode extension : CM (complete main)
Format settings, Endianness : Big
Codec ID : A_AC3
Duration : 1h 48mn
Bit rate mode : Constant
Bit rate : 192 Kbps
Channel(s) : 2 channels
Channel positions : Front: L R
Sampling rate : 48.0 KHz
Bit depth : 16 bits
Compression mode : Lossy
Stream size : 148 MiB (3%)
Title : MVO (K1)
Language : Ukrainian
Default : Yes
Forced : No

Audio #2
ID : 3
Format :
Format/Info : Digital Theater Systems
Format profile : ES
Codec ID : A_DTS
Duration : 1h 48mn
Bit rate mode : Constant
Bit rate : 1 510 Kbps
Channel(s) : 7 channels / 6 channels
Channel positions : Front: L C R, Side: L R, Back: C, LFE / Front: L C R, Side: L R, LFE
Sampling rate : 48.0 KHz
Bit depth : 24 bits
Compression mode : Lossy
Stream size : 1.14 GiB (26%)
Title : Oliginal
Language : English
Default : No
Forced : No

Text
ID : 4
Format : UTF-8
Codec ID : S_TEXT/UTF8
Codec ID/Info : UTF-8 Plain Text
Language : English
Default : Yes
Forced : No

Джерело: Подяка за запис п. simkanetua і OlegCena. Зведення - 4erkov.
Особиста оцінка: 8 - мені сподобалося


 Трекер:    Зареєстрований   

Завантажити / скачати фільм українською



відео для новачків



 Зареєстрований:   2012-08-23 13:12
 Розмір:   4.39 GB 
 Оцінка фільму:   7.4/10 (Голосів: 5)
   
Інші релізи
4erkov 
Відео Гуртом - запис з ТБ
Відео Гуртом - запис з ТБ


З нами з: 09.10.10
Востаннє: 06.12.16
Повідомлень: 1846

2012-08-23 13:17  
Прохання написати зараз, якщо з релізом/оформленням щось не так, оскільки звечора мене кілька днів не буде на толоці. І бажано щоб хтось завантажив реліз і роздавав його на протязі цього часу. Дякую.
Ваш часовий пояс: GMT + 2 Години

Нова тема   Відповісти