Завантажити та скачати торренти українською


Кокаїн / Blow (2001) 1080p Ukr/Eng | Sub Ukr/Eng

Нові коментарі

Нова тема   Відповісти
Автор Повідомлення
ratbol 
Модератор HD


З нами з: 03.02.09
Востаннє: 10.12.16
Повідомлень: 1088

2012-08-22 21:33  
Кокаїн / Blow (2001) 1080p Ukr/Eng | Sub Ukr/Eng


« Based on a True Story »


Жанр: біографія, драма, кримінал
Країна: США



Кіностудія / кінокомпанія: Apostle, Avery Pix, New Line Cinema, Spanky Pictures
Режисер: Тед Демме
Актори: Джонні Депп, Пенелопа Круз, Франка Потенте, Рейчел Гріффітс, Пол Рубенс, Джорді Молла, Кліфф Кертіс та інші.

Сюжет:
Джордж Янг, звичайний хлопець із передмістя, вирішив здійснити американську мрію своїм способом — стати першим американцем, що імпортує кокаїн у великих обсягах. Він створив собі ринок збуту, підсадивши на кокаїн найзнаменитіших людей Америки. Незабаром він уже купався в грошах і розкоші, про які багато хто тільки мріє. Йому вдавалося обводити навколо пальця не тільки ФБР, але й страшних колумбійських наркоділків. Однак справжній кайф він отримував від небезпеки і ризику, потребуючи адреналін більше ніж наркотики.


Тривалість: 02:03:26
Якість:
Відео:
кодек:
розмір кадру: 1920 х 816
бітрейт: 13.4 Мб/с

Аудіо # 1:
мова: українська
переклад: багатоголосий закадровий | НТН
кодек: 2.1
бітрейт: 384 кб/с

Аудіо # 2:
мова: англійська
переклад: оригінал
кодек: 5.1
бітрейт: 1536 кб/с

Аудіо # 3:
мова: англійська
переклад: коментарі
кодек: OGG 2.0
бітрейт: 80 кб/с

Джерело озвучення:


Субтитри # 1:
мова: українська | завантажити окремо
тип: програмні (м'які)
формат: *.srt

Субтитри # 2:
мова: англійська
тип: програмні (м'які)
формат: *.srt

Оригінальні розділи:
Збережено та підписано

MediaInfo
Код:
General
Unique ID                        : 241775876542702985155228414429277588311 (0xB5E4570D4802400FAF66A64E33D60B57)
Complete name                    : E:\MOVIES\movie releases\Blow (2001)\Blow (2001) [Ukr, Eng, Com. Sub - Ukr, Eng] 1080p [Hurtom].mkv
Format                           : Matroska
Format version                   : Version 2
File size                        : 13.2 GiB
Duration                         : 2h 3mn
Overall bit rate mode            : Variable
Overall bit rate                 : 15.3 Mbps
Movie name                       : Blow (2001) [Hurtom]
Encoded date                     : UTC 2012-08-21 22:17:33
Writing application              : mkvmerge v5.6.0 ('Kenya Kane') built on May 27 2012 16:44:04
Writing library                  : libebml v1.2.3 + libmatroska v1.3.0

Video
ID                               : 1
Format                           : AVC
Format/Info                      : Advanced Video Codec
Format profile                   : [email protected]
Format settings, CABAC           : Yes
Format settings, ReFrames        : 5 frames
Codec ID                         : V_MPEG4/ISO/AVC
Duration                         : 2h 3mn
Bit rate                         : 13.4 Mbps
Width                            : 1 920 pixels
Height                           : 816 pixels
Display aspect ratio             : 2.35:1
Frame rate                       : 23.976 fps
Color space                      : YUV
Chroma subsampling               : 4:2:0
Bit depth                        : 8 bits
Scan type                        : Progressive
Bits/(Pixel*Frame)               : 0.356
Stream size                      : 11.3 GiB (85%)
Title                            : Ріп від HDH
Writing library                  : core 125 r2200 999b753
Encoding settings                : cabac=1 / ref=5 / deblock=1:-3:-3 / analyse=0x3:0x133 / me=tesa / subme=11 / psy=1 / psy_rd=1.00:0.15 / mixed_ref=1 / me_range=24 / chroma_me=1 / trellis=2 / 8x8dct=1 / cqm=0 / deadzone=21,11 / fast_pskip=0 / chroma_qp_offset=-3 / threads=12 / lookahead_threads=2 / sliced_threads=0 / nr=0 / decimate=1 / interlaced=0 / bluray_compat=0 / constrained_intra=0 / bframes=6 / b_pyramid=2 / b_adapt=2 / b_bias=0 / direct=3 / weightb=1 / open_gop=0 / weightp=2 / keyint=240 / keyint_min=23 / scenecut=40 / intra_refresh=0 / rc_lookahead=60 / rc=2pass / mbtree=1 / bitrate=13388 / ratetol=1.0 / qcomp=0.60 / qpmin=0 / qpmax=69 / qpstep=4 / cplxblur=20.0 / qblur=0.5 / ip_ratio=1.40 / aq=1:1.00
Language                         : English
Default                          : Yes
Forced                           : No

Audio #1
ID                               : 2
Format                           : AC-3
Format/Info                      : Audio Coding 3
Mode extension                   : CM (complete main)
Codec ID                         : A_AC3
Duration                         : 2h 3mn
Bit rate mode                    : Constant
Bit rate                         : 384 Kbps
Channel(s)                       : 3 channels
Channel positions                : Front: L R, LFE
Sampling rate                    : 48.0 KHz
Bit depth                        : 16 bits
Compression mode                 : Lossy
Stream size                      : 339 MiB (3%)
Title                            : 2.1 [384 Kbps] — багатолосий закадровий, НТН
Language                         : Ukrainian
Default                          : Yes
Forced                           : No

Audio #2
ID                               : 3
Format                           :
Format/Info                      : Digital Theater Systems
Codec ID                         : A_DTS
Duration                         : 2h 3mn
Bit rate mode                    : Constant
Bit rate                         : 1 510 Kbps
Channel(s)                       : 6 channels
Channel positions                : Front: L C R, Side: L R, LFE
Sampling rate                    : 48.0 KHz
Bit depth                        : 16 bits
Compression mode                 : Lossy
Stream size                      : 1.30 GiB (10%)
Title                            : 5.1 [1536 Kbps] — оригінал
Language                         : English
Default                          : No
Forced                           : No

Audio #3
ID                               : 4
Format                           : Vorbis
Format settings, Floor           : 1
Codec ID                         : A_VORBIS
Duration                         : 2h 3mn
Bit rate mode                    : Variable
Bit rate                         : 80.0 Kbps
Channel(s)                       : 2 channels
Sampling rate                    : 48.0 KHz
Compression mode                 : Lossy
Stream size                      : 70.6 MiB (1%)
Title                            : OGG 2.0 [80 Kbps] — коментарі
Writing library                  : libVorbis 1.1.1/1.1.2 (UTC 2005-03-04)
Language                         : English
Default                          : No
Forced                           : No

Text #1
ID                               : 5
Format                           : UTF-8
Codec ID                         : S_TEXT/UTF8
Codec ID/Info                    : UTF-8 Plain Text
Language                         : Ukrainian
Default                          : No
Forced                           : No

Text #2
ID                               : 6
Format                           : UTF-8
Codec ID                         : S_TEXT/UTF8
Codec ID/Info                    : UTF-8 Plain Text
Language                         : English
Default                          : No
Forced                           : No

Menu
00:00:00.000                     : en:1. Main Titles
00:03:03.516                     : en:2. My Name is George Jung
00:07:00.002                     : en:3. Summer 1968
00:13:09.121                     : en:4. Coast to Coast
00:18:51.630                     : en:5. Donde Esta Pot?
00:25:08.131                     : en:6. Family Dinner
00:27:45.497                     : en:7. Chicago 1972
00:32:00.835                     : en:8. A Visit Home
00:36:56.047                     : en:9. Diego
00:44:00.804                     : en:10. Colombia 1976
00:50:19.349                     : en:11. A Favor
00:55:34.998                     : en:12. Pablo
01:03:57.625                     : en:13. Mirtha
01:09:02.847                     : en:14. A Family Visit
01:11:42.089                     : en:15. Diego's Move
01:17:08.290                     : en:16. No More Brothers
01:20:55.183                     : en:17. Kristina
01:26:08.788                     : en:18. Happy Birthday
01:28:58.958                     : en:19. On the Run Again
01:32:59.532                     : en:20. Florida 1987
01:38:02.793                     : en:21. George's Heart
01:42:31.854                     : en:22. One Last Score
01:49:22.722                     : en:23. A Message Home
01:53:48.822                     : en:24. A Visitor
01:57:59.072                     : en:25. End Credits
log
Код:
---[NoImage] [info]: using SAR=1/1
---[NoImage] [info]: using cpu capabilities: MMX2 SSE2Fast SSSE3 FastShuffle SSE4.2 AVX
---[NoImage] [info]: profile High, level 4.1
---[NoImage]
---[NoImage] [info]: frame I:1085  Avg QP:16.40  size:217238
---[NoImage] [info]: frame P:35838 Avg QP:18.84  size:107892
---[NoImage] [info]: frame B:140654 Avg QP:20.95  size: 58912
---[NoImage] [info]: consecutive B-frames:  1.1%  2.2%  3.3% 20.1% 10.8% 56.8%  5.6%
---[NoImage] [info]: mb I  I16..4: 13.5% 70.8% 15.7%
---[NoImage] [info]: mb P  I16..4:  2.5% 28.7%  2.6%  P16..4: 22.2% 27.3%  8.2%  2.8%  0.2%    skip: 5.5%
---[NoImage] [info]: mb B  I16..4:  0.5%  5.9%  0.2%  B16..8: 37.1% 22.2%  3.6%  direct:14.1%  skip:16.5%  L0:42.2% L1:37.5% BI:20.3%
---[NoImage] [info]: 8x8 transform intra:86.2% inter:42.1%
---[NoImage] [info]: direct mvs  spatial:96.9% temporal:3.1%
---[NoImage] [info]: coded y,uvDC,uvAC intra: 91.9% 80.1% 47.6% inter: 52.5% 35.1% 3.4%
---[NoImage] [info]: i16 v,h,dc,p: 41%  9%  9% 41%
---[NoImage] [info]: i8 v,h,dc,ddl,ddr,vr,hd,vl,hu: 10%  8% 13%  9% 12% 11% 12% 12% 14%
---[NoImage] [info]: i4 v,h,dc,ddl,ddr,vr,hd,vl,hu: 10%  8% 12%  8% 13% 12% 13% 10% 14%
---[NoImage] [info]: i8c dc,h,v,p: 34% 26% 22% 17%
---[NoImage] [info]: Weighted P-Frames: Y:5.1% UV:2.5%
---[NoImage] [info]: ref P L0: 52.9%  6.2% 21.9% 11.5%  7.2%  0.3%  0.0%
---[NoImage] [info]: ref B L0: 77.8% 16.7%  4.6%  0.9%
---[NoImage] [info]: ref B L1: 90.3%  9.7%
---[NoImage] [info]: kb/s:13381.35
---[NoImage] encoded 177577 frames, 2.25 fps, 13381.35 kb/s
Скріншоти
Source vs Encode








Робота над релізом:
drakon87 — запис з ТБ;
LIONN — українські субтитри;
hellforces — українізація постера;
ratbol — відеоріп.


Джерело: Реліз-група &
Особиста оцінка: 8 - мені сподобалося


Срібний реліз (на рейтинг впливає 50% завантаженого)
 Трекер:    Зареєстрований   

Завантажити / скачати фільм українською



відео для новачків



 Зареєстрований:   2012-08-22 21:33
 Розмір:   13.23 GB 
 Оцінка фільму:   8.8/10 (Голосів: 9)
 Не тікаємо з роздачі!
   
Інші релізи
   Кокаїн / Blow (2001) Ukr | Sub Ukr/Eng patriot2305  1 / 0   1.62 GB   2012-09-01 18:02 
   Кокаїн / Blow (2001) 720p Ukr/Eng | Sub Ukr/Eng DеLight  1 / 0   4.35 GB   2011-10-23 13:17 
   Кокаїн / Blow (2001) Ukr/Eng | Sub Eng Romario_O  3 / 0   2.19 GB   2009-12-21 18:15 
Ваш часовий пояс: GMT + 2 Години

Нова тема   Відповісти