Завантажити та скачати торренти українською


Кабельник / The Cable Guy (1996) 1080p Ukr/Eng | Sub Eng

Нові коментарі

Нова тема   Відповісти
Автор Повідомлення
ratbol 
Модератор HD


З нами з: 03.02.09
Востаннє: 01.12.16
Повідомлень: 1088

2012-08-20 16:28  
Кабельник / The Cable Guy (1996) 1080p Ukr/Eng | Sub Eng

Кабельник / The Cable Guy (1996) 1080p Ukr/Eng | Sub Eng

« Are you ready to get wired? »


Жанр: комедія, драма
Країна: США



Кіностудія / кінокомпанія: Columbia Pictures Corporation, Licht/Mueller Film Corporation.
Режисер: Бен Стіллер
Актори: Джим Керрі, Метью Бродерік, Леслі Манн, Джек Блек, Джордж Сігал, Дайан Бейкер, Бен Стіллер, Овен Bілсон та інші.

Сюжет:
Чіп Дуґлас — кабельник, і відверто кажучи, хлопець з причудами. Познайомившись зі Стівеном Ковачем, він хоче стати його кращим другом. Дізнавшись більше один про одного, Стівен розуміє, що ця дружба йому не потрібна. Вирішивши позбавитися такого «друга», він усвідомлює, що це буде зовсім не просто. «Я можу бути твоїм кращим другом... або найстрашнішим ворогом » — це слова Чіпа. І Стівен знає, що той не жартує.


Тривалість: 01:35:45
Якість:
Відео:
кодек:
розмір кадру: 1920 х 800
бітрейт: 14.2 Мб/с

Аудіо # 1:
мова: українська
переклад: багатоголосий закадровий | Інтер
кодек: 2.0
бітрейт: 192 кб/с Аудіо # 2:
мова: англійська
переклад: оригінал
кодек: 5.1
бітрейт: 1536 кб/с

Аудіо # 3:
мова: англійська
переклад: коментарі
кодек: 2.0
бітрейт: 192 кб/с

Джерело озвучення:


Субтитри:
мова: англійська
тип: програмні (м'які)
формат: *.srt

Оригінальні розділи:
Збережено

MediaInfo
Код:
General
Unique ID                        : 249785277166977833060513308111223469006 (0xBBEAE4FDB58C856CB8737309B0DD33CE)
Complete name                    : E:\MOVIES\movie releases\The Cable Guy\The Cable Guy (1996) [Ukr, Eng. Sub - Eng] 1080p.mkv
Format                           : Matroska
Format version                   : Version 2
File size                        : 10.8 GiB
Duration                         : 1h 35mn
Overall bit rate                 : 16.1 Mbps
Movie name                       : The Cable Guy (1996) [Hurtom]
Encoded date                     : UTC 2012-08-20 10:45:04
Writing application              : mkvmerge v5.6.0 ('Kenya Kane') built on May 27 2012 16:44:04
Writing library                  : libebml v1.2.3 + libmatroska v1.3.0

Video
ID                               : 1
Format                           : AVC
Format/Info                      : Advanced Video Codec
Format profile                   : [email protected]
Format settings, CABAC           : Yes
Format settings, ReFrames        : 4 frames
Codec ID                         : V_MPEG4/ISO/AVC
Duration                         : 1h 35mn
Bit rate                         : 14.2 Mbps
Width                            : 1 920 pixels
Height                           : 800 pixels
Display aspect ratio             : 2.40:1
Frame rate                       : 23.976 fps
Color space                      : YUV
Chroma subsampling               : 4:2:0
Bit depth                        : 8 bits
Scan type                        : Progressive
Bits/(Pixel*Frame)               : 0.385
Stream size                      : 9.27 GiB (86%)
Title                            : Ріп від HDH
Writing library                  : core 125 r2200 999b753
Encoding settings                : cabac=1 / ref=4 / deblock=1:-3:-3 / analyse=0x3:0x133 / me=tesa / subme=11 / psy=1 / psy_rd=1.00:0.15 / mixed_ref=1 / me_range=24 / chroma_me=1 / trellis=2 / 8x8dct=1 / cqm=0 / deadzone=21,11 / fast_pskip=0 / chroma_qp_offset=-3 / threads=12 / lookahead_threads=2 / sliced_threads=0 / nr=0 / decimate=1 / interlaced=0 / bluray_compat=0 / constrained_intra=0 / bframes=8 / b_pyramid=2 / b_adapt=2 / b_bias=0 / direct=3 / weightb=1 / open_gop=0 / weightp=2 / keyint=240 / keyint_min=23 / scenecut=40 / intra_refresh=0 / rc_lookahead=60 / rc=2pass / mbtree=1 / bitrate=14188 / ratetol=1.0 / qcomp=0.60 / qpmin=0 / qpmax=69 / qpstep=4 / cplxblur=20.0 / qblur=0.5 / ip_ratio=1.40 / aq=1:1.00
Language                         : English
Default                          : Yes
Forced                           : No

Audio #1
ID                               : 2
Format                           : AC-3
Format/Info                      : Audio Coding 3
Mode extension                   : CM (complete main)
Codec ID                         : A_AC3
Duration                         : 1h 35mn
Bit rate mode                    : Constant
Bit rate                         : 192 Kbps
Channel(s)                       : 2 channels
Channel positions                : Front: L R
Sampling rate                    : 48.0 KHz
Bit depth                        : 16 bits
Compression mode                 : Lossy
Stream size                      : 132 MiB (1%)
Title                            : 2.0 [192 Kbps] — багатолосий закадровий, Інтер
Language                         : Ukrainian
Default                          : Yes
Forced                           : No

Audio #2
ID                               : 3
Format                           :
Format/Info                      : Digital Theater Systems
Codec ID                         : A_DTS
Duration                         : 1h 35mn
Bit rate mode                    : Constant
Bit rate                         : 1 510 Kbps
Channel(s)                       : 6 channels
Channel positions                : Front: L C R, Side: L R, LFE
Sampling rate                    : 48.0 KHz
Bit depth                        : 24 bits
Compression mode                 : Lossy
Stream size                      : 1.01 GiB (9%)
Title                            : 5.1 [1536 Kbps] — оригінал
Language                         : English
Default                          : No
Forced                           : No

Audio #3
ID                               : 4
Format                           : AC-3
Format/Info                      : Audio Coding 3
Format profile                   : Dolby Digital
Mode extension                   : CM (complete main)
Codec ID                         : A_AC3
Duration                         : 1h 35mn
Bit rate mode                    : Constant
Bit rate                         : 192 Kbps
Channel(s)                       : 2 channels
Channel positions                : Front: L R
Sampling rate                    : 48.0 KHz
Bit depth                        : 16 bits
Compression mode                 : Lossy
Stream size                      : 132 MiB (1%)
Title                            : 2.0 [192 Kbps] — коментарі
Language                         : English
Default                          : No
Forced                           : No

Text
ID                               : 5
Format                           : UTF-8
Codec ID                         : S_TEXT/UTF8
Codec ID/Info                    : UTF-8 Plain Text
Language                         : English
Default                          : No
Forced                           : No

Menu
00:00:00.000                     : en:Chapter 1
00:04:08.206                     : en:Chapter 2
00:11:00.118                     : en:Chapter 3
00:17:48.484                     : en:Chapter 4
00:23:36.081                     : en:Chapter 5
00:29:40.821                     : en:Chapter 6
00:37:31.791                     : en:Chapter 7
00:44:38.551                     : en:Chapter 8
00:50:20.142                     : en:Chapter 9
00:55:16.355                     : en:Chapter 10
01:02:09.392                     : en:Chapter 11
01:08:01.452                     : en:Chapter 12
01:15:11.841                     : en:Chapter 13
01:20:14.101                     : en:Chapter 14
01:23:23.040                     : en:Chapter 15
01:29:43.837                     : en:Chapter 16
log
Код:
-[NoImage] [info]: using SAR=1/1
-[NoImage] [info]: using cpu capabilities: MMX2 SSE2Fast SSSE3 FastShuffle SSE4.2 AVX
-[NoImage] [info]: profile High, level 4.1
-[NoImage]
-[NoImage] [info]: frame I:864   Avg QP:16.73  size:230491
-[NoImage] [info]: frame P:26663 Avg QP:19.67  size:111529
-[NoImage] [info]: frame B:110233 Avg QP:21.62  size: 63585
-[NoImage] [info]: consecutive B-frames:  1.4%  1.9%  4.5% 16.5% 15.2% 29.7% 10.7% 16.8%  3.2%
-[NoImage] [info]: mb I  I16..4:  9.8% 70.5% 19.6%
-[NoImage] [info]: mb P  I16..4:  1.1% 25.4%  2.2%  P16..4: 24.4% 32.1%  9.0%  2.5%  0.2%    skip: 3.2%
-[NoImage] [info]: mb B  I16..4:  0.2%  5.9%  0.3%  B16..8: 39.2% 23.7%  4.7%  direct: 9.9%  skip:16.1%  L0:44.2% L1:41.1% BI:14.7%
-[NoImage] [info]: 8x8 transform intra:89.6% inter:48.6%
-[NoImage] [info]: direct mvs  spatial:99.6% temporal:0.4%
-[NoImage] [info]: coded y,uvDC,uvAC intra: 95.6% 95.3% 87.0% inter: 48.5% 48.3% 24.7%
-[NoImage] [info]: i16 v,h,dc,p: 35% 14% 13% 38%
-[NoImage] [info]: i8 v,h,dc,ddl,ddr,vr,hd,vl,hu:  8%  7% 11% 11% 13% 12% 11% 12% 13%
-[NoImage] [info]: i4 v,h,dc,ddl,ddr,vr,hd,vl,hu: 12% 10%  7%  9% 13% 13% 12% 11% 13%
-[NoImage] [info]: i8c dc,h,v,p: 58% 12% 12% 18%
-[NoImage] [info]: Weighted P-Frames: Y:4.1% UV:2.3%
-[NoImage] [info]: ref P L0: 59.0%  4.3% 25.1% 10.8%  0.8%  0.0%
-[NoImage] [info]: ref B L0: 86.6% 11.1%  2.3%
-[NoImage] [info]: ref B L1: 91.9%  8.1%
-[NoImage] [info]: kb/s:14176.84
-[NoImage] encoded 137760 frames, 2.07 fps, 14176.84 kb/s
Скріншоти

Source vs Encode








Робота над релізом:
dvorsky — запис звуку з ТБ;
karvai0 — синхронізація української доріжки;
ratbol — відеоріп.


Джерело:
Особиста оцінка: 8 - мені сподобалося


Срібний реліз (на рейтинг впливає 50% завантаженого)
 Трекер:    Зареєстрований   

Завантажити / скачати фільм українською



відео для новачків



 Зареєстрований:   2012-08-20 16:28
 Розмір:   10.75 GB 
 Оцінка фільму:   10/10 (Голосів: 4)
 Не тікаємо з роздачі!
   
Інші релізи
   Кабельник / The Cable Guy (1996) [640x270] apvAltisimo  0 / 0   827 MB   2014-05-02 22:26 
   Кабельник / The Cable Guy (1996) 720p Ukr/Eng | Sub Eng Zeus62  1 / 0   4.43 GB   2012-02-28 02:43 
   Кабельник / The Cable Guy (1996) Ukr | Sub Eng karvai0  5 / 0   1.32 GB   2012-02-22 18:38 
Ваш часовий пояс: GMT + 2 Години

Нова тема   Відповісти