Завантажити та скачати торренти українською


Моє дівчисько / My Sassy Girl (2008) AVC Ukr | Sub Eng

Нові коментарі

Нова тема   Відповісти
Автор Повідомлення
DеLight 
Відео Гуртом - фільмокрай
Відео Гуртом - фільмокрай


З нами з: 24.08.11
Востаннє: 17.11.16
Повідомлень: 664

2012-08-20 14:35  
Моє дівчисько / My Sassy Girl (2008) AVC Ukr | Sub Eng

Моє дівчисько / My Sassy Girl (2008) AVC Ukr | Sub Eng


Альтернативні обкладинки





Жанр: драма, комедія, мелодрама
Країна: США

6.1/10 (10,138 голосів)

Кіностудія / кінокомпанія: CJ Entertainment, Gold Circle Films, Madacy Entertainment Group Inc., Maverick Films, Sassy Girl Productions, Vertigo Entertainment
Режисер: Янн Семюель / Yann Samuell
Актори: Еліша Катберт / Elisha Cuthbert, Джессі Бредфорд / Jesse Bradford, Остін Басіс / Austin Basis, Кріс Сарандон / Chris Sarandon, Джей Паттерсон / Jay Patterson, Том Олдрідж / Tom Aldredge, Луїс Мустілло / Louis Mustillo, Брайан Редді / Brian Reddy, Старк Сендс / Stark Sands, Джоанна Глісон / Joanna Gleason, Шерін Сноу / Cherene Snow, Кімберлі Янгблад / Kimberly Youngblood, Дон Спаркс / Don Sparks, Шон Філліпс / Sean Phillips, Вільям Абаді / William Abadie

Сюжет:
Чарлі - звичайний студент коледжу, який живе своїм нудним життям. Одного разу в метро він зустрічає симпатичну блондинку Джордан, яка намагалася кинутися під електричку. Познайомившись, таким чином, з дівчиною, Чарлі продовжує з нею зустрічатися і дізнається, що вона красива, талановита і ... божевільна. Потрапляючи в ряд досить кумедних ситуацій, Чарлі намагається завоювати її серце, а це виявляється ой як непросто ...





Тривалість: 01:31:27
Якість: AVC

Відео:
кодек:
розмір кадру: 880 x 488
бітрейт: 1 891 кб/с

Аудіо:
мова: українська
переклад: двоголосий закадровий
кодек: 5.1
бітрейт: 448 кб/с

Джерело озвучення:


Субтитри:
мова: англійська
тип: програмні (м'які)
формат: *.srt



->переглянути<-

General
Unique ID : 249982390146602750386562409448136303441 (0xBC10DB694928D01183171450D604E351)
Complete name : D:\Torrents\My Sassy Girl (2008) AVC [Ukr, sub Eng] [Hurtom].mkv
Format : Matroska
Format version : Version 2
File size : 1.49 GiB
Duration : 1h 31mn
Overall bit rate : 2 339 Kbps
Movie name : My Sassy Girl (2008) AVC [Ukr, sub Eng] [Hurtom] by Delight
Encoded date : UTC 2012-08-19 15:41:33
Writing application : mkvmerge v5.7.0 ('The Whirlwind') built on Jul 8 2012 20:08:51
Writing library : libebml v1.2.3 + libmatroska v1.3.0

Video
ID : 1
Format : AVC
Format/Info : Advanced Video Codec
Format profile : [email protected]
Format settings, CABAC : Yes
Format settings, ReFrames : 4 frames
Codec ID : V_MPEG4/ISO/AVC
Duration : 1h 31mn
Bit rate : 1 891 Kbps
Width : 880 pixels
Height : 488 pixels
Display aspect ratio : 16:9
Frame rate mode : Constant
Frame rate : 25.000 fps
Color space : YUV
Chroma subsampling : 4:2:0
Bit depth : 8 bits
Scan type : Progressive
Bits/(Pixel*Frame) : 0.176
Stream size : 1.18 GiB (79%)
Title : My Sassy Girl (2008) AVC
Writing library : core 115 r1937 aa21558
Encoding settings : cabac=1 / ref=3 / deblock=1:-1:-1 / analyse=0x3:0x113 / me=hex / subme=7 / psy=1 / psy_rd=1.00:0.10 / mixed_ref=1 / me_range=16 / chroma_me=1 / trellis=1 / 8x8dct=1 / cqm=0 / deadzone=21,11 / fast_pskip=1 / chroma_qp_offset=-3 / threads=6 / sliced_threads=0 / nr=0 / decimate=1 / interlaced=0 / bluray_compat=0 / constrained_intra=0 / bframes=3 / b_pyramid=2 / b_adapt=1 / b_bias=0 / direct=3 / weightb=1 / open_gop=0 / weightp=2 / keyint=250 / keyint_min=25 / scenecut=40 / intra_refresh=0 / rc_lookahead=40 / rc=2pass / mbtree=1 / bitrate=1891 / ratetol=1.0 / qcomp=0.60 / qpmin=0 / qpmax=69 / qpstep=4 / cplxblur=20.0 / qblur=0.5 / ip_ratio=1.40 / aq=1:1.00
Language : English
Default : Yes
Forced : No

Audio
ID : 2
Format : AC-3
Format/Info : Audio Coding 3
Mode extension : CM (complete main)
Format settings, Endianness : Big
Codec ID : A_AC3
Duration : 1h 31mn
Bit rate mode : Constant
Bit rate : 448 Kbps
Channel(s) : 6 channels
Channel positions : Front: L C R, Side: L R, LFE
Sampling rate : 48.0 KHz
Bit depth : 16 bits
Compression mode : Lossy
Stream size : 293 MiB (19%)
Title : 5.1; 448 kbps; двоголосий закадровий {1+1}
Language : Ukrainian
Default : Yes
Forced : No

Text
ID : 3
Format : UTF-8
Codec ID : S_TEXT/UTF8
Codec ID/Info : UTF-8 Plain Text
Title : full
Language : English
Default : Yes
Forced : No
->переглянути<-


















Джерело: &
Вдячний за працю: MAKAPOHHIK - запис з ТБ, Andick - готова українська доріжка, Тирік - український постер
Особиста оцінка: 10 - давно не отримував такого задоволення від перегляду, ну і чарівна Еліша...


Дещо хороше із фільму


Іноді ти заводиш стосунки, а іноді вони заводять тебе...

Доля - це місток до коханої людини, який ви будуєте самі.



 Трекер:    Зареєстрований   

Завантажити / скачати фільм українською



відео для новачків



 Зареєстрований:   2012-08-20 14:35
 Розмір:   1.49 GB 
 Оцінка фільму:   9.7/10 (Голосів: 24)
   
Інші релізи
   Моє дівчисько / My Sassy Girl (2008) Ukr/Eng Andick  5 / 0   2.01 GB   2010-08-07 12:03 
MutuLI 
Відео Гуртом - фільмокрай
Відео Гуртом - фільмокрай


З нами з: 08.03.09
Востаннє: 05.12.16
Повідомлень: 1249

2012-08-20 19:31  
Delight` написано:
Еліша Катберт / Elisha Cuthbert

Люблю цю актрису. Та й фільм хороший, варто переглянути.

Oleksiy_Samchuk 
Новенький


З нами з: 23.06.11
Востаннє: 23.02.15
Повідомлень: 21

2012-09-08 00:44  
Еліша Катберт - нове відкриття у кіномистецтві. Мене не дуже приваблює слово "панянка", можливо, через те, що не приваблює і слово "пан", але в цьому випадку так і хочеться назвати Елішу - панянка. Гарна панянка. Її роль - це доволі божевільна, сп'яніла від горя блондинка Джордан. Вона спроможна поставити людину своєї долі в настільки чудернацькі ситуації, що годі вигадати. Радує те, що це смішно і весело водночас.

- змінити долю - це і є доля;
- доля - це місток до коханої людини, який ми будуємо самі.

Люблю такі фільми. Не через те, що в них є щось особливе. Хоча, можливо, таки є. Життєве - це куди краще за всяку там фантастику. РАДЖУ!

[тут було посилання Tongue out (1) ]

Олег 1983 
Новенький


З нами з: 10.06.11
Востаннє: 03.09.16
Повідомлень: 2

2012-12-02 10:58  
Дуже гарний фільм!!!!!!!!!!!
Ваш часовий пояс: GMT + 2 Години

Нова тема   Відповісти