Завантажити та скачати торренти українською


Троє в каное / Without a Paddle (2004) AVC 2xUkr

Нові коментарі

Нова тема   Відповісти
Останній раз роздавалося Andrlo (2016-12-05)
Автор Повідомлення
NoFear729 
Новенький


З нами з: 25.09.11
Востаннє: 06.12.16
Повідомлень: 15

2012-08-18 16:11  
Троє в каное / Without a Paddle (2004) AVC 720p-mini 2xUkr

Троє в каное / Without a Paddle (2004) AVC 2xUkr


Жанр: комедія, пригодницький
Країна: США, Нова Зеландія



Режисер: Стівен Брілл / Steven Brill
Актори: Меттью Ліллард/ Matthew Lillard, Декс Шепард/ Dax Shepard, Берт Рейнолдс/ Burt Reynolds, Етан Саплі/ Ethan Suplee, Абрахам Бенрубі/ Abraham Benrubi, Рейчел Бленчард/ Rachel Blanchard, Крістіна Мур/ Christina Moore, Надін Бернекер/ Nadine Bernecker, Даніель Кормак/ Danielle Cormack

Сюжет:
Троє близьких друзів з Філадельфії відправляються на каное в незвідані місця Орегона за скарбом, що оцінюється в 200 тисяч доларів. Але досягти мети їм буде нелегко: друзям доведеться переборювати бурхливу ріку, їм будуть заважати несамовиті місцеві жителі, звабні дівчатка й божевільний старий, що живе в горах.


Тривалість: 1:38:51
Якість: AVC
Відео:
кодек:
розмір кадру: 1024х432
бітрейт: 1 885 кб/с

Аудіо # 1:
мова: українська
переклад: багатоголосий закадровий
кодек: 5.1
бітрейт: 448 кб/с

Аудіо # 2:
мова: українська
переклад: багатоголосий закадровий від "ТакТреба Продакшн" на замовлення:від "
кодек: 5.1
бітрейт: 448 кб/с

MediaInfo

General
Unique ID : 173329409566295693792506957445235543097 (0x826607AEE90716409EE3FCF583010C39)
Complete name : D:Without a Paddle.2004.AVC 720p-mini Ukr.mkv
Format : Matroska
Format version : Version 2
File size : 1.92 GiB
Duration : 1h 38mn
Overall bit rate : 2 781 Kbps
Encoded date : UTC 2012-08-18 13:25:07
Writing application : mkvmerge v4.4.0 ('Die Wiederkehr') зібрано Oct 31 2010 21:52:48
Writing library : libebml v1.0.0 + libmatroska v1.0.0
Video #1
ID : 1
Format : AVC
Format/Info : Advanced Video Codec
Format profile : [email protected]
Format settings, CABAC : Yes
Format settings, ReFrames : 11 frames
Muxing mode : Header stripping
Codec ID : V_MPEG4/ISO/AVC
Duration : 1h 38mn
Bit rate : 1 885 Kbps
Width : 1 024 pixels
Height : 432 pixels
Display aspect ratio : 2.35:1
Frame rate : 23.976 fps
Color space : YUV
Chroma subsampling : 4:2:0
Bit depth : 8 bits
Scan type : Progressive
Bits/(Pixel*Frame) : 0.178
Stream size : 1.26 GiB (66%)
Writing library : core 84 r1416 fcf70c2
Encoding settings : cabac=1 / ref=12 / deblock=1:0:0 / analyse=0x3:0x113 / me=umh / subme=10 / psy=1 / psy_rd=1.0:1.0 / mixed_ref=1 / me_range=32 / chroma_me=1 / trellis=2 / 8x8dct=1 / cqm=0 / deadzone=21,11 / fast_pskip=0 / chroma_qp_offset=-4 / threads=4 / sliced_threads=0 / nr=0 / decimate=0 / mbaff=0 / constrained_intra=0 / bframes=13 / b_pyramid=1 / b_adapt=2 / b_bias=0 / direct=3 / wpredb=1 / wpredp=2 / keyint=250 / keyint_min=25 / scenecut=40 / intra_refresh=0 / rc_lookahead=40 / rc=2pass / mbtree=1 / bitrate=1885 / ratetol=1.0 / qcomp=0.60 / qpmin=10 / qpmax=51 / qpstep=4 / cplxblur=20.0 / qblur=0.5 / ip_ratio=1.40 / aq=1:1.00
Language : English
Audio #2
ID : 2
Format : AC-3
Format/Info : Audio Coding 3
Mode extension : CM (complete main)
Muxing mode : Header stripping
Codec ID : A_AC3
Duration : 1h 38mn
Bit rate mode : Constant
Bit rate : 448 Kbps
Channel(s) : 6 channels
Channel positions : Front: L C R, Side: L R, LFE
Sampling rate : 48.0 KHz
Bit depth : 16 bits
Compression mode : Lossy
Stream size : 317 MiB (16%)
Title : TakTreba
Language : Ukrainian
Audio #3
ID : 3
Format : AC-3
Format/Info : Audio Coding 3
Mode extension : CM (complete main)
Muxing mode : Header stripping
Codec ID : A_AC3
Duration : 1h 38mn
Bit rate mode : Constant
Bit rate : 448 Kbps
Channel(s) : 6 channels
Channel positions : Front: L C R, Side: L R, LFE
Sampling rate : 48.0 KHz
Bit depth : 16 bits
Compression mode : Lossy
Stream size : 317 MiB (16%)
Title : Inter
Language : Ukrainian


Скріншоти




Джерело:
Особиста оцінка: 8 - мені сподобалося


Срібний реліз (на рейтинг впливає 50% завантаженого)
 Трекер:    Зареєстрований   

Завантажити / скачати фільм українською



відео для новачків



 Зареєстрований:   2012-08-18 16:13
 Розмір:   1.92 GB 
 Оцінка фільму:   9.1/10 (Голосів: 19)
   
Інші релізи
   Троє в каное / Without a Paddle (2004) 720p 2xUkr/Eng | Sub Eng kino.  1 / 0   8.6 GB   2014-07-11 17:15 
   Троє в каное / Without a Paddle (2004) 2xUkr/Eng | Sub Eng _oles  2 / 3   2.08 GB   2011-11-03 09:36 
vadya_vl 
Новенький


З нами з: 16.06.11
Востаннє: 23.11.16
Повідомлень: 11

2012-08-20 11:16  
Фільм супер! Wink (1)
Але прошу дороздайте)

cherkasI 
Новенький


З нами з: 04.01.12
Востаннє: 23.02.15
Повідомлень: 5

2012-08-25 19:34  
кілька днів не можу докачати ((
tarka1986 
Новенький


З нами з: 06.09.12
Востаннє: 21.02.16
Повідомлень: 11

2012-09-08 17:04  
Фільм справді супер , хто не бачив - рекомендую.
So_Simple 
Відео Гуртом - підтримка та поширення
Відео Гуртом - підтримка та поширення


З нами з: 03.06.10
Востаннє: 04.12.16
Повідомлень: 431

2012-09-29 21:17  
не таке вже і ссупер... більша частина фільму- дурня! хоча деколи смішно
дууже сподобався момент з полем коноплі. а особливо матриця!)

5/10

virtus8hur 
Попереджень: 1
Попереджень: 1 


З нами з: 06.02.10
Востаннє: 06.12.16
Повідомлень: 2959

2013-05-04 18:54  
Колись глянув його ще коли був у дев'ятому класі. Тоді він був ледь не найкращим шедевром мого життя!
Ваш часовий пояс: GMT + 2 Години

Нова тема   Відповісти