Завантажити та скачати торренти українською


Морська прогулянка [Розширена версія] / Donkey Punch [Unrated] (2008) 720p Ukr/Eng | Sub Eng

Нові коментарі

Нова тема   Відповісти
Автор Повідомлення
urij546724 
Відео Гуртом - фільмокрай
Відео Гуртом - фільмокрай


З нами з: 16.03.10
Востаннє: 08.12.16
Повідомлень: 5222

2012-08-17 19:53  
Морська прогулянка [Розширена версія] / Donkey Punch [Unrated] (2008) 720p Ukr/Eng | Sub Eng

Альтернативні постери:


Слогани:
«This party is going overboard.»
«Ця вечірка вийде за борт.»


Жанр: драма, трилер
Країна: Великобританія ()



Кіностудія / кінокомпанія: EM Media, Film4, Madman Entertainment
Режисер: Олівер Блекберн (Oliver Blackburn)
Актори: Роберт Болтер (Robert Boulter), Шан Брекін (Sian Breckin), Том Бурк (Tom Burke), Нікола Берлі (Nichola Burley), Джуліан Морріс (Julian Morris), Джей Тейлор (Jay Taylor), Джемі Вїнстон (Jaime Winstone)
Усі актори та їх фото:
Роберт Болтер (Robert Boulter), Шан Брекін (Sian Breckin), Том Бурк (Tom Burke), Нікола Берлі (Nichola Burley), Джуліан Морріс (Julian Morris), Джей Тейлор (Jay Taylor), Джемі Вїнстон (Jaime Winstone)

Сюжет:
Троє дівчат, які приїхали на Ібіцу розважитися, знайомляться в нічному клубі з хлопцями, чий рівень доходу помітно перевищує їх власний. Прийнявши запрошення відпочити на борту розкішної яхти, одна з них, після шаленого статевого акту, гине. Розпочаті суперечки про те, що робити далі, призводять до безжальної боротьби за виживання.


Бюджет: 3 000 000 доларів
Збори в США: 19 367 доларів
Збори у світі: 694 422 долари
Назва фільму у інших країнах
Donkey Punch
Франція / Греція (Назва на DVD) / Швеція


Coups mortels
Франція


Donkey Punch - Blutige See
Німеччина


Prazeres Mortais
Бразилія


The Punch
Великобританія (Робоча назва)


Võmm kuklasse
Естонія


Донки Панч / Морская прогулка
Росія
Media info
General
Unique ID : 222183651656755499811030784811993031071 (0xA72703C923DF895A91C1E60EE5FE619F)
Complete name : D:\Donkey Punch (2008) [ukr_KIT(Babay)_eng_DTS_5.1] 720p [Hurtom] by urij546724.mkv
Format : Matroska
Format version : Version 2
File size : 5.42 GiB
Duration : 1h 39mn
Overall bit rate : 7 811 Kbps
Movie name : Donkey Punch (2008) [ukr_KIT(Babay)_eng_DTS_5.1] 720p [Hurtom] by urij546724
Encoded date : UTC 2012-08-17 17:18:03
Writing application : mkvmerge v2.9.7 ('Tenderness') built on Jul 1 2009 18:43:35
Writing library : libebml v0.7.7 + libmatroska v0.8.1

Video
ID : 1
Format : AVC
Format/Info : Advanced Video Codec
Format profile : [email protected]
Format settings, CABAC : Yes
Format settings, ReFrames : 5 frames
Codec ID : V_MPEG4/ISO/AVC
Duration : 1h 39mn
Bit rate : 4 790 Kbps
Width : 1 280 pixels
Height : 688 pixels
Display aspect ratio : 1.85:1
Frame rate : 23.976 fps
Color space : YUV
Chroma subsampling : 4:2:0
Bit depth : 8 bits
Scan type : Progressive
Bits/(Pixel*Frame) : 0.227
Stream size : 3.22 GiB (59%)
Title : Donkey Punch (2008) [ukr_KIT(Babay)_eng_DTS_5.1] 720p [Hurtom] by urij546724
Writing library : core 65 r1024 2652abe
Encoding settings : cabac=1 / ref=5 / deblock=1:0:0 / analyse=0x3:0x133 / me=umh / subme=7 / psy_rd=1.0:0.0 / mixed_ref=1 / me_range=16 / chroma_me=1 / trellis=1 / 8x8dct=1 / cqm=0 / deadzone=21,11 / chroma_qp_offset=-2 / threads=6 / nr=0 / decimate=1 / mbaff=0 / bframes=3 / b_pyramid=1 / b_adapt=1 / b_bias=0 / direct=1 / wpredb=1 / keyint=250 / keyint_min=25 / scenecut=40(pre) / rc=2pass / bitrate=4790 / ratetol=1.0 / qcomp=0.60 / qpmin=10 / qpmax=51 / qpstep=4 / cplxblur=20.0 / qblur=0.5 / ip_ratio=1.40 / pb_ratio=1.30 / aq=1:1.00
Language : English
Default : Yes
Forced : No

Audio #1
ID : 2
Format :
Format/Info : Digital Theater Systems
Codec ID : A_DTS
Duration : 1h 39mn
Bit rate mode : Constant
Bit rate : 1 510 Kbps
Channel(s) : 6 channels
Channel positions : Front: L C R, Side: L R, LFE
Sampling rate : 48.0 KHz
Bit depth : 24 bits
Compression mode : Lossy
Stream size : 1.05 GiB (19%)
Title : Українська доріжка
Language : Ukrainian
Default : Yes
Forced : No

Audio #2
ID : 3
Format :
Format/Info : Digital Theater Systems
Codec ID : A_DTS
Duration : 1h 39mn
Bit rate mode : Constant
Bit rate : 1 510 Kbps
Channel(s) : 6 channels
Channel positions : Front: L C R, Side: L R, LFE
Sampling rate : 48.0 KHz
Bit depth : 16 bits
Compression mode : Lossy
Stream size : 1.05 GiB (19%)
Title : Англійська доріжка
Language : English
Default : No
Forced : No

Text
ID : 4
Format : UTF-8
Codec ID : S_TEXT/UTF8
Codec ID/Info : UTF-8 Plain Text
Title : Англійські субтитри
Language : English
Default : Yes
Forced : No


Тривалість: 01:39:20
Якість: 720p
Відео:
кодек:
розмір кадру: 1280 х 688
бітрейт: ~ 4790 кб/с
частота кадрів: 23.976 к/с (fps)

Аудіо #1:
мова: українська
переклад: двоголосий закадровий
кодек: 5.1
бітрейт: 1510 кб/с
озвучено: компанія "Кіт"
запис звуку з каналу: Також з цією озвучкою показували на каналі 1+1.

Аудіо #2:
мова: англійська
переклад: оригінал
кодек: 5.1
бітрейт: 1510 кб/с

Субтитри:
мова: англійська
тип: програмні (м'які)
формат: *.srt

Скріншоти:





Трейлери:


Семпл
Джерело 1_________Джерело 2_________Джерело 3_________Джерело 4_________Джерело 5_________Джерело 6_________Джерело 7
У випадку, якщо з усіх джерел семпл видалять, прохання повідомити мені у ПРИВАТ


Подяка:

1. Пану urij546724 за запис звуку з ТБ.


Реліз створено: &

Особиста оцінка: 8 - хороший молодіжний трилер, мені сподобалося.


 Трекер:    Зареєстрований   

Завантажити / скачати фільм українською



відео для новачків



 Зареєстрований:   2012-08-17 22:28
 Розмір:   5.42 GB 
 Оцінка фільму:   5.7/10 (Голосів: 11)
 Прохання залишати коментарі і не тікати з роздачі.
   
hellforces 
VIP


З нами з: 25.06.08
Востаннє: 11.11.16
Повідомлень: 1556

2012-08-25 23:21  
таке собі 7\10
Ваш часовий пояс: GMT + 2 Години

Нова тема   Відповісти