Завантажити та скачати торренти українською


Рутенія - Дискографія (7 альбомів) (1992-2011) [FLAC] | Bard-Rock

Нові коментарі

Нова тема   Відповісти
Автор Повідомлення
gosha.samovar 
VIP


З нами з: 08.09.10
Востаннє: 06.12.16
Повідомлень: 400

2012-08-15 20:04  
Рутенія - Дискографія (7 альбомів) (1992-2011) [FLAC] | Bard-Rock

Рутенія - Дискографія (7 альбомів) (1992-2011) [FLAC] | Bard-Rock


Стиль: Rock
Країна, місто: Україна, Київ
Пісні:
1992 - Вулиці Рожевого Міста (перевидання 2002 року)

    01. Рожеве Місто
    02. Чорні Круки
    03. Ніч пурпурових вогнів
    04. А надворі дощ...
    05. Пан-Амерікан
    06. Твій друг - Білий лев
    07. Колискова (Спи, маленький козачок)
    08. Дитина, що названа Сонце
    09. Політ під крилом
EAC log
Exact Audio Copy V1.0 beta 3 from 29. August 2011

Отчёт EAC об извлечении, выполненном 19. июля 2012, 12:53

Рутенія / Вулиці Рожевого Міста

Дисковод: HL-DT-STDVD-RAM GSA-H58N Adapter: 0 ID: 0

Режим чтения : Достоверность
Использование точного потока : Да
Отключение кэша аудио : Да
Использование указателей C2 : Нет

Коррекция смещения при чтении : 102
Способность читать области Lead-in и Lead-out : Нет
Заполнение пропущенных сэмплов тишиной : Да
Удаление блоков с тишиной в начале и конце : Нет
При вычислениях CRC использовались нулевые сэмплы : Да
Интерфейс : Встроенный Win32-интерфейс для Win NT/2000

Выходной формат : Пользовательский кодировщик
Выбранный битрейт : 1024 kBit/s
Качество : Высокий
Добавление ID3-тега : Нет
Утилита сжатия : D:\soft_2\EAC\Exact Audio Copy\Flac\flac.exe
Дополнительные параметры : -V -8 -T "Date=%year%" -T "Genre=%genre%" %source%

TOC извлечённого CD

Трек | Старт | Длительность | Начальный сектор | Конечный сектор
---------------------------------------------------------------------
1 | 0:00.00 | 5:42.02 | 0 | 25651
2 | 5:42.02 | 5:59.54 | 25652 | 52630
3 | 11:41.56 | 6:24.40 | 52631 | 81470
4 | 18:06.21 | 2:45.72 | 81471 | 93917
5 | 20:52.18 | 4:11.35 | 93918 | 112777
6 | 25:03.53 | 3:00.40 | 112778 | 126317
7 | 28:04.18 | 4:12.13 | 126318 | 145230
8 | 32:16.31 | 3:47.03 | 145231 | 162258
9 | 36:03.34 | 5:10.65 | 162259 | 185573

Характеристики диапазона извлечения и сообщения об ошибках

Выбранный диапазон

Имя файла E:\Музіка!\from EAC\Рутенія\1992 - Вулиці Рожевого Міста\Рутенія - Вулиці Рожевого Міста.wav

Пиковый уровень 100.0 %
Скорость извлечения 2.5 X
Качество диапазона 99.9 %
CRC теста 210ED39B
CRC копии 210ED39B
Копирование... OK

Ошибок не произошло

AccurateRip: сводка

Трек 1 отсутствует в базе данных
Трек 2 отсутствует в базе данных
Трек 3 отсутствует в базе данных
Трек 4 отсутствует в базе данных
Трек 5 отсутствует в базе данных
Трек 6 отсутствует в базе данных
Трек 7 отсутствует в базе данных
Трек 8 отсутствует в базе данных
Трек 9 отсутствует в базе данных

Ни одного трека нет в базе AccurateRip

Конец отчёта

==== Контрольная сумма отчёта A97FEE95E19EB42C30368F42EC081EA8D5F432E35BD0C2DC79F690F919C94A74 ====
Спектр
Склад:
    Анатолій Сухий - Вокал, акустична гітара,
    Константин Єрофеєв - Підспів,
    Галина Толчанова - Підспів (09),
    Дмитро Підлуський - Ударні,
    Салман Салманов - Перкусія,
    Григорій Лук'яненко - Акустична гітара,
    Роман Суржа - Електрична та акустична гітари, клавішні (08), підспів,
    Ігор Давідянц - Бас-гітара, підспів,
    Віктор Карасік - Клавішні та синтезатори,
    Генадій Івченко - Саксофон, флейти,
    Випадкові виконавці - Альт, віолончель,
    Звукорежисер - Андрій Толчанов.


Видавець: Анатолій Сухий

Тривалість: 41:14
Мова: українська
Аудіо-кодек: FLAC
Бітрейт: 776 кб/с
1992-2002 - Десь за Дніпром гримить гроза (перевидання 2002 року)

    01. Десь за Дніпром гримить гроза
    02. Руська балада
    03. Він жив
    04. Вальс для Ярини
    05. Крук - чорний сотник УПА
    06. Чардаш
    07. Я возьму кріса
EAC log
Exact Audio Copy V1.0 beta 3 from 29. August 2011

Отчёт EAC об извлечении, выполненном 19. июля 2012, 0:50

Рутенія / Десь за Дніпром гримить гроза

Дисковод: HL-DT-STDVD-RAM GSA-H58N Adapter: 0 ID: 0

Режим чтения : Достоверность
Использование точного потока : Да
Отключение кэша аудио : Да
Использование указателей C2 : Нет

Коррекция смещения при чтении : 102
Способность читать области Lead-in и Lead-out : Нет
Заполнение пропущенных сэмплов тишиной : Да
Удаление блоков с тишиной в начале и конце : Нет
При вычислениях CRC использовались нулевые сэмплы : Да
Интерфейс : Встроенный Win32-интерфейс для Win NT/2000

Выходной формат : Пользовательский кодировщик
Выбранный битрейт : 1024 kBit/s
Качество : Высокий
Добавление ID3-тега : Нет
Утилита сжатия : D:\soft_2\EAC\Exact Audio Copy\Flac\flac.exe
Дополнительные параметры : -V -8 -T "Date=%year%" -T "Genre=%genre%" %source%

TOC извлечённого CD

Трек | Старт | Длительность | Начальный сектор | Конечный сектор
---------------------------------------------------------------------
1 | 0:00.00 | 3:01.27 | 0 | 13601
2 | 3:01.27 | 5:14.10 | 13602 | 37161
3 | 8:15.37 | 4:32.73 | 37162 | 57634
4 | 12:48.35 | 1:26.70 | 57635 | 64154
5 | 14:15.30 | 2:53.59 | 64155 | 77188
6 | 17:09.14 | 3:05.41 | 77189 | 91104
7 | 20:14.55 | 3:49.24 | 91105 | 108303

Характеристики диапазона извлечения и сообщения об ошибках

Выбранный диапазон

Имя файла E:\Музіка!\from EAC\1992-2002 - Десь за Дніпром гримить гроза\Рутенія - Десь за Дніпром гримить гроза.wav

Пиковый уровень 99.9 %
Скорость извлечения 2.0 X
Качество диапазона 99.9 %
CRC теста 71C01B47
CRC копии 71C01B47
Копирование... OK

Ошибок не произошло

AccurateRip: сводка

Трек 1 отсутствует в базе данных
Трек 2 отсутствует в базе данных
Трек 3 отсутствует в базе данных
Трек 4 отсутствует в базе данных
Трек 5 отсутствует в базе данных
Трек 6 отсутствует в базе данных
Трек 7 отсутствует в базе данных

Ни одного трека нет в базе AccurateRip

Конец отчёта

==== Контрольная сумма отчёта 5E9D7778C6F8FC45CBCC5BA8F3E1B93E9B83F3B080FF2976BC963272C331EF3D ====
Спектр
Склад:
    Анатолій Сухий - Вокал, акустична гітара;
    Константин Єрофеєв - Підспів;
    Дмитро Підлуський - Ударні;
    Салман Салманов - Перкусія;
    Григорій Лук'яненко - Акустична гітара;
    Роман Суржа - Електрична та акустична гітари, підспів;
    Ігор Давідянц - Бас-гітара;
    Звукорежисер - Андрій Толчанов.


Видавець: Анатолій Сухий

Тривалість: 24:04
Мова: українська
Аудіо-кодек: FLAC
Бітрейт: 930 кб/с
1998 - Провінційний Джаз (перевидання 2002 року)

    01. Леді рок-н-рол
    02. Пікнік для двох
    03. Провінційний джаз
    04. Київ та Гарлем
    05. Лілея
    06. Флюоресценція
    07. Бедуїн
    08. Зірка нічного клубу
EAC log
Exact Audio Copy V1.0 beta 3 from 29. August 2011

Отчёт EAC об извлечении, выполненном 18. июля 2012, 14:19

Рутенія / Провінційний Джаз

Дисковод: HL-DT-STDVD-RAM GSA-H58N Adapter: 0 ID: 0

Режим чтения : Достоверность
Использование точного потока : Да
Отключение кэша аудио : Да
Использование указателей C2 : Нет

Коррекция смещения при чтении : 102
Способность читать области Lead-in и Lead-out : Нет
Заполнение пропущенных сэмплов тишиной : Да
Удаление блоков с тишиной в начале и конце : Нет
При вычислениях CRC использовались нулевые сэмплы : Да
Интерфейс : Встроенный Win32-интерфейс для Win NT/2000

Выходной формат : Пользовательский кодировщик
Выбранный битрейт : 1024 kBit/s
Качество : Высокий
Добавление ID3-тега : Нет
Утилита сжатия : D:\soft_2\EAC\Exact Audio Copy\Flac\flac.exe
Дополнительные параметры : -V -8 -T "Date=%year%" -T "Genre=%genre%" %source%

TOC извлечённого CD

Трек | Старт | Длительность | Начальный сектор | Конечный сектор
---------------------------------------------------------------------
1 | 0:00.00 | 7:50.32 | 0 | 35281
2 | 7:50.32 | 5:35.45 | 35282 | 60451
3 | 13:26.02 | 4:48.67 | 60452 | 82118
4 | 18:14.69 | 5:39.52 | 82119 | 107595
5 | 23:54.46 | 5:52.01 | 107596 | 133996
6 | 29:46.47 | 8:30.53 | 133997 | 172299
7 | 38:17.25 | 4:15.36 | 172300 | 191460
8 | 42:32.61 | 6:07.50 | 191461 | 219035

Характеристики диапазона извлечения и сообщения об ошибках

Выбранный диапазон

Имя файла E:\Музіка!\from EAC\1998 - Провінційний Джаз\Рутенія - Провінційний Джаз.wav

Пиковый уровень 100.0 %
Скорость извлечения 2.8 X
Качество диапазона 99.9 %
CRC теста 75360BC8
CRC копии 75360BC8
Копирование... OK

Ошибок не произошло

AccurateRip: сводка

Трек 1 отсутствует в базе данных
Трек 2 отсутствует в базе данных
Трек 3 отсутствует в базе данных
Трек 4 отсутствует в базе данных
Трек 5 отсутствует в базе данных
Трек 6 отсутствует в базе данных
Трек 7 отсутствует в базе данных
Трек 8 отсутствует в базе данных

Ни одного трека нет в базе AccurateRip

Конец отчёта

==== Контрольная сумма отчёта A0A8194A2FE704557FA09B9570177F20D1D85284C612AE6000E4A50F544F9E8F ====
Спектр
Склад:
    Анатолій Сухий - акустична гітара, спів,
    Валерій Косенюк - електрична гітара,
    Владислав Возняк - бас гітара,
    Александер Комісаренко - ударні,
    Звукорежисер запису - Сергій Головін


Видавець: Анатолій Сухий

Тривалість: 48:40
Мова: українська
Аудіо-кодек: FLAC
Бітрейт: 848 кб/с
2001 - Десять років по тому

    01. Рожеве місто
    02. Політ під крилом кондора
    03. Панамерікан
    04. Круки
    05. Колискова
    06. Ніч пурпурових вогнів
    07. Надворі дощ
    08. Твій друг - білий лев
EAC log
Exact Audio Copy V1.0 beta 3 from 29. August 2011

Отчёт EAC об извлечении, выполненном 19. июля 2012, 13:44

Рутенія / Десять років по тому...

Дисковод: HL-DT-STDVD-RAM GSA-H58N Adapter: 0 ID: 0

Режим чтения : Достоверность
Использование точного потока : Да
Отключение кэша аудио : Да
Использование указателей C2 : Нет

Коррекция смещения при чтении : 102
Способность читать области Lead-in и Lead-out : Нет
Заполнение пропущенных сэмплов тишиной : Да
Удаление блоков с тишиной в начале и конце : Нет
При вычислениях CRC использовались нулевые сэмплы : Да
Интерфейс : Встроенный Win32-интерфейс для Win NT/2000

Выходной формат : Пользовательский кодировщик
Выбранный битрейт : 1024 kBit/s
Качество : Высокий
Добавление ID3-тега : Нет
Утилита сжатия : D:\soft_2\EAC\Exact Audio Copy\Flac\flac.exe
Дополнительные параметры : -V -8 -T "Date=%year%" -T "Genre=%genre%" %source%

TOC извлечённого CD

Трек | Старт | Длительность | Начальный сектор | Конечный сектор
---------------------------------------------------------------------
1 | 0:00.00 | 5:38.57 | 0 | 25406
2 | 5:38.57 | 5:13.03 | 25407 | 48884
3 | 10:51.60 | 4:10.08 | 48885 | 67642
4 | 15:01.68 | 5:58.16 | 67643 | 94508
5 | 21:00.09 | 4:09.42 | 94509 | 113225
6 | 25:09.51 | 6:21.69 | 113226 | 141869
7 | 31:31.45 | 2:43.20 | 141870 | 154114
8 | 34:14.65 | 2:56.67 | 154115 | 167381

Характеристики диапазона извлечения и сообщения об ошибках

Выбранный диапазон

Имя файла E:\Музіка!\from EAC\Рутенія\2001 - Десять років по тому\Рутенія - Десять років по тому....wav

Пиковый уровень 97.7 %
Скорость извлечения 2.1 X
Качество диапазона 99.9 %
CRC теста 885AA6F2
CRC копии 885AA6F2
Копирование... OK

Ошибок не произошло

AccurateRip: сводка

Трек 1 отсутствует в базе данных
Трек 2 отсутствует в базе данных
Трек 3 отсутствует в базе данных
Трек 4 отсутствует в базе данных
Трек 5 отсутствует в базе данных
Трек 6 отсутствует в базе данных
Трек 7 отсутствует в базе данных
Трек 8 отсутствует в базе данных

Ни одного трека нет в базе AccurateRip

Конец отчёта

==== Контрольная сумма отчёта 6C0FA0DBEEFD346D06B89A57C44EC4C804D51413CEA47F583EE05D7465845DE9 ====
Сектр
Склад:
    Вокал: А. Сухий, К. Єрофєєв
    Гітари: Р. Суржа, Г. Лук'яненко, А. Сухий
    Бас-гітара: І. Давидянц
    Духові: Г. Івченко
    Ударні: Д. Підлуський
    Перкусія: С. Салманов
    Клавішні: О. Пекаровський
    Звукорежисери: А. Толчанов, С. Попович


Видавець: "Росток-Рекордс", "Темпора"

Тривалість: 37:12
Мова: українська
Аудіо-кодек: FLAC
Бітрейт: 843 кб/с
2006 - Під крилом кондора. Рутенія 1991

    01. Чорні круки
    02. Panamerican
    03. Rock-n-roll
    04. Ніч пурпурових вогнів
    05. Рожеве місто
    06. На площі квітів
    07. Надворі дощ
    08. Як заграли
    09. Лісова пісня
    10. Неопалима купина
    11. Десь за Дніпром
    12. Колискова
    13. Чардаш
    14. Балада про вільного стрільця
    15. Похрещені вогнем
    16. Післямова
    17. Чаєчка (з презентації у Будинку вчителя 12. 10. 1991)
EAC log
Exact Audio Copy V1.0 beta 3 from 29. August 2011

Отчёт EAC об извлечении, выполненном 11. ноября 2013, 16:49

Рутенія / Під крилом кондора. Рутенія 1991

Дисковод: PHILIPS SPD2519T Adapter: 2 ID: 0

Режим чтения : Достоверность
Использование точного потока : Да
Отключение кэша аудио : Да
Использование указателей C2 : Нет

Коррекция смещения при чтении : 6
Способность читать области Lead-in и Lead-out : Нет
Заполнение пропущенных сэмплов тишиной : Да
Удаление блоков с тишиной в начале и конце : Нет
При вычислениях CRC использовались нулевые сэмплы : Да
Интерфейс : Встроенный Win32-интерфейс для Win NT/2000

Выходной формат : Пользовательский кодировщик
Выбранный битрейт : 1024 kBit/s
Качество : Высокий
Добавление ID3-тега : Нет
Утилита сжатия : D:\soft_2\EAC\Exact Audio Copy\Flac\flac.exe
Дополнительные параметры : -V -8 -T "Date=%year%" -T "Genre=%genre%" %source%

TOC извлечённого CD

Трек | Старт | Длительность | Начальный сектор | Конечный сектор
---------------------------------------------------------------------
1 | 0:00.00 | 5:24.24 | 0 | 24323
2 | 5:24.24 | 4:03.13 | 24324 | 42561
3 | 9:27.37 | 3:44.70 | 42562 | 59431
4 | 13:12.32 | 6:41.39 | 59432 | 89545
5 | 19:53.71 | 4:37.43 | 89546 | 110363
6 | 24:31.39 | 2:21.32 | 110364 | 120970
7 | 26:52.71 | 2:08.10 | 120971 | 130580
8 | 29:01.06 | 2:07.01 | 130581 | 140106
9 | 31:08.07 | 4:00.08 | 140107 | 158114
10 | 35:08.15 | 4:24.48 | 158115 | 177962
11 | 39:32.63 | 3:12.51 | 177963 | 192413
12 | 42:45.39 | 4:09.46 | 192414 | 211134
13 | 46:55.10 | 4:00.54 | 211135 | 229188
14 | 50:55.64 | 6:50.42 | 229189 | 259980
15 | 57:46.31 | 5:09.57 | 259981 | 283212
16 | 62:56.13 | 2:09.15 | 283213 | 292902
17 | 65:05.28 | 4:39.34 | 292903 | 313861

Характеристики диапазона извлечения и сообщения об ошибках

Выбранный диапазон

Имя файла N:\Роздачі\Рутенія\Рутенія - Дискографія (6 альбомів) (1992-2011) [FLAC]\1991 - Під крилом кондора\Рутенія - Під крилом кондора.wav

Пиковый уровень 99.4 %
Скорость извлечения 4.6 X
Качество диапазона 99.9 %
CRC теста 20104771
CRC копии 20104771
Копирование... OK

Ошибок не произошло

AccurateRip: сводка

Трек 1 отсутствует в базе данных
Трек 2 отсутствует в базе данных
Трек 3 отсутствует в базе данных
Трек 4 отсутствует в базе данных
Трек 5 отсутствует в базе данных
Трек 6 отсутствует в базе данных
Трек 7 отсутствует в базе данных
Трек 8 отсутствует в базе данных
Трек 9 отсутствует в базе данных
Трек 10 отсутствует в базе данных
Трек 11 отсутствует в базе данных
Трек 12 отсутствует в базе данных
Трек 13 отсутствует в базе данных
Трек 14 отсутствует в базе данных
Трек 15 отсутствует в базе данных
Трек 16 отсутствует в базе данных
Трек 17 отсутствует в базе данных

Ни одного трека нет в базе AccurateRip

Конец отчёта

==== Контрольная сумма отчёта 08E81C30A05FDE54BD65DE39D4AC7EF28F1D732AC3275BF5A4FC7C6284D2E467 ====
Спектр
Склад:
    Анатолій Сухий - гітара, вокал
    Константин Єрофеєв - лідер-вокал
    Григорій Лук'яненко - гітари, вокал
    Володимир Смаженко - духові, вокал
    Салман Салманов - ударні, вокал


Видавець: АТЛАНТІК

Тривалість: 01:09:45
Мова: українська
Аудіо-кодек: FLAC
Бітрейт: 819 кб/с
2007 - Неопалима Купина

    01. Скоростріл, куфайка
    02. Чардаш
    03. Неопалима Купина
    04. Десь за Дніпром
    05. Через ліс
    06. Пане полковнику
    07. Бо йде війна
    08. Я возьму кріса
    09. Завтра в далеку дорогу
    10. Я Крук
    11. Як заграли
EAC log
Exact Audio Copy V1.0 beta 3 from 29. August 2011

Отчёт EAC об извлечении, выполненном 19. июля 2012, 14:34

Рутенія / Неопалима Купина

Дисковод: HL-DT-STDVD-RAM GSA-H58N Adapter: 0 ID: 0

Режим чтения : Достоверность
Использование точного потока : Да
Отключение кэша аудио : Да
Использование указателей C2 : Нет

Коррекция смещения при чтении : 102
Способность читать области Lead-in и Lead-out : Нет
Заполнение пропущенных сэмплов тишиной : Да
Удаление блоков с тишиной в начале и конце : Нет
При вычислениях CRC использовались нулевые сэмплы : Да
Интерфейс : Встроенный Win32-интерфейс для Win NT/2000

Выходной формат : Пользовательский кодировщик
Выбранный битрейт : 1024 kBit/s
Качество : Высокий
Добавление ID3-тега : Нет
Утилита сжатия : D:\soft_2\EAC\Exact Audio Copy\Flac\flac.exe
Дополнительные параметры : -V -8 -T "Date=%year%" -T "Genre=%genre%" %source%

TOC извлечённого CD

Трек | Старт | Длительность | Начальный сектор | Конечный сектор
---------------------------------------------------------------------
1 | 0:00.00 | 3:20.71 | 0 | 15070
2 | 3:20.71 | 3:06.38 | 15071 | 29058
3 | 6:27.34 | 3:55.13 | 29059 | 46696
4 | 10:22.47 | 3:25.09 | 46697 | 62080
5 | 13:47.56 | 3:06.42 | 62081 | 76072
6 | 16:54.23 | 4:08.00 | 76073 | 94672
7 | 21:02.23 | 3:54.00 | 94673 | 112222
8 | 24:56.23 | 3:52.38 | 112223 | 129660
9 | 28:48.61 | 3:25.49 | 129661 | 145084
10 | 32:14.35 | 3:45.37 | 145085 | 161996
11 | 35:59.72 | 3:17.08 | 161997 | 176779

Характеристики диапазона извлечения и сообщения об ошибках

Выбранный диапазон

Имя файла E:\Музіка!\from EAC\Рутенія\2007 - Неопалима Купина\Рутенія - Неопалима Купина.wav

Пиковый уровень 88.0 %
Скорость извлечения 2.4 X
Качество диапазона 99.9 %
CRC теста B4EC727A
CRC копии B4EC727A
Копирование... OK

Ошибок не произошло

AccurateRip: сводка

Трек 1 отсутствует в базе данных
Трек 2 отсутствует в базе данных
Трек 3 отсутствует в базе данных
Трек 4 отсутствует в базе данных
Трек 5 отсутствует в базе данных
Трек 6 отсутствует в базе данных
Трек 7 отсутствует в базе данных
Трек 8 отсутствует в базе данных
Трек 9 отсутствует в базе данных
Трек 10 отсутствует в базе данных
Трек 11 отсутствует в базе данных

Ни одного трека нет в базе AccurateRip

Конец отчёта

==== Контрольная сумма отчёта 62A35590A87628C17A713F7AC99E4D79A9E5F2ABDAA4AFB39E79370764BD10A6 ====
Спектр
Склад:
    Анатолій Сухий - гітара, вокал
    Григорій Лук'яненко - гітара, вокал, перкусія, клавішні
    Едуард Драч - гітара, вокал
    Дмитро Підлуський - ударні, перкусія
    Роман Суржа - електрогітара
    Ярослав Забродський - скрипка
    Віктор Магомет - дводенцівка

    Звукорежисери:
    Григорій Лук'яненко (01, 03, 04, 05, 06, 07, 09, 10, 11)
    Андрій Толчанов (02, 08)
    Мастерінг - Григорій Лук'яненко


Видавець: "НАШ ФОРМАТ"

Тривалість: 39:17
Мова: українська
Аудіо-кодек: FLAC
Бітрейт: 712 кб/с
2011 - Хто живий
диск 1

    01. Чекає бій
    02. Бій гарячий
    03. На зеленій траві
    04. Ну і що...
    05. На покинутих згарищах
    06. Ой як станем
    07. Все вище
    08. Пам'яті круків
    09. Військо
    10. Реквієм
    11. Марш УНА-УНСО
    12. Абхазький вальс
    13. Збудись, Україно
    14. Реквієм (хор)
EAC log
Exact Audio Copy V1.0 beta 3 from 29. August 2011

Отчёт EAC об извлечении, выполненном 19. июля 2012, 15:50

Рутенія / Хто живий (диск 1)

Дисковод: HL-DT-STDVD-RAM GSA-H58N Adapter: 0 ID: 0

Режим чтения : Достоверность
Использование точного потока : Да
Отключение кэша аудио : Да
Использование указателей C2 : Нет

Коррекция смещения при чтении : 102
Способность читать области Lead-in и Lead-out : Нет
Заполнение пропущенных сэмплов тишиной : Да
Удаление блоков с тишиной в начале и конце : Нет
При вычислениях CRC использовались нулевые сэмплы : Да
Интерфейс : Встроенный Win32-интерфейс для Win NT/2000

Выходной формат : Пользовательский кодировщик
Выбранный битрейт : 1024 kBit/s
Качество : Высокий
Добавление ID3-тега : Нет
Утилита сжатия : D:\soft_2\EAC\Exact Audio Copy\Flac\flac.exe
Дополнительные параметры : -V -8 -T "Date=%year%" -T "Genre=%genre%" %source%

TOC извлечённого CD

Трек | Старт | Длительность | Начальный сектор | Конечный сектор
---------------------------------------------------------------------
1 | 0:00.00 | 1:01.74 | 0 | 4648
2 | 1:01.74 | 7:50.06 | 4649 | 39904
3 | 8:52.05 | 5:32.00 | 39905 | 64804
4 | 14:24.05 | 5:05.06 | 64805 | 87685
5 | 19:29.11 | 5:49.03 | 87686 | 113863
6 | 25:18.14 | 5:52.15 | 113864 | 140278
7 | 31:10.29 | 2:37.00 | 140279 | 152053
8 | 33:47.29 | 5:50.17 | 152054 | 178320
9 | 39:37.46 | 2:41.19 | 178321 | 190414
10 | 42:18.65 | 6:01.11 | 190415 | 217500
11 | 48:20.01 | 2:55.27 | 217501 | 230652
12 | 51:15.28 | 6:39.52 | 230653 | 260629
13 | 57:55.05 | 2:50.00 | 260630 | 273379
14 | 60:45.05 | 5:48.58 | 273380 | 299537

Характеристики диапазона извлечения и сообщения об ошибках

Выбранный диапазон

Имя файла E:\Музіка!\from EAC\Рутенія\2011 - Хто живий\диск 1\Рутенія - Хто живий (диск 1).wav

Пиковый уровень 88.7 %
Скорость извлечения 2.9 X
Качество диапазона 99.9 %
CRC теста C58AE22B
CRC копии C58AE22B
Копирование... OK

Ошибок не произошло

AccurateRip: сводка

Трек 1 отсутствует в базе данных
Трек 2 отсутствует в базе данных
Трек 3 отсутствует в базе данных
Трек 4 отсутствует в базе данных
Трек 5 отсутствует в базе данных
Трек 6 отсутствует в базе данных
Трек 7 отсутствует в базе данных
Трек 8 отсутствует в базе данных
Трек 9 отсутствует в базе данных
Трек 10 отсутствует в базе данных
Трек 11 отсутствует в базе данных
Трек 12 отсутствует в базе данных
Трек 13 отсутствует в базе данных
Трек 14 отсутствует в базе данных

Ни одного трека нет в базе AccurateRip

Конец отчёта

==== Контрольная сумма отчёта 447A2A7120C3A2B5CD69F6AA28B779F7897156071D874402CD16C1ED831BB80D ====
Спектр
Тривалість: 01:06:34
Мова: українська
Аудіо-кодек: FLAC
Бітрейт: 777 кб/с
диск 2
    01. Батальйон Шрома
    02. Подай, дівчино...
    03. Ой у полі криниченька (нар.)
    04. Любо братці, любо (нар.)
    05. Холодний Яр
    06. Бо йде війна
    07. Марш "Арго" (Ішли ми до бою...)
    08. Гімн Волі
    09. Хто живий
    10. Пам'ять
    11. Легіонер
    12. Вічная пам'ять
    13. Ясени
    14. Неопалима купина
EAC log
Exact Audio Copy V1.0 beta 3 from 29. August 2011

Отчёт EAC об извлечении, выполненном 19. июля 2012, 19:23

Рутенія / Хто живий (диск 2)

Дисковод: HL-DT-STDVD-RAM GSA-H58N Adapter: 0 ID: 0

Режим чтения : Достоверность
Использование точного потока : Да
Отключение кэша аудио : Да
Использование указателей C2 : Нет

Коррекция смещения при чтении : 102
Способность читать области Lead-in и Lead-out : Нет
Заполнение пропущенных сэмплов тишиной : Да
Удаление блоков с тишиной в начале и конце : Нет
При вычислениях CRC использовались нулевые сэмплы : Да
Интерфейс : Встроенный Win32-интерфейс для Win NT/2000

Выходной формат : Пользовательский кодировщик
Выбранный битрейт : 1024 kBit/s
Качество : Высокий
Добавление ID3-тега : Нет
Утилита сжатия : D:\soft_2\EAC\Exact Audio Copy\Flac\flac.exe
Дополнительные параметры : -V -8 -T "Date=%year%" -T "Genre=%genre%" %source%

TOC извлечённого CD

Трек | Старт | Длительность | Начальный сектор | Конечный сектор
---------------------------------------------------------------------
1 | 0:00.00 | 4:43.01 | 0 | 21225
2 | 4:43.01 | 3:05.39 | 21226 | 35139
3 | 7:48.40 | 3:22.00 | 35140 | 50289
4 | 11:10.40 | 7:19.43 | 50290 | 83257
5 | 18:30.08 | 4:52.00 | 83258 | 105157
6 | 23:22.08 | 5:09.13 | 105158 | 128345
7 | 28:31.21 | 2:41.52 | 128346 | 140472
8 | 31:12.73 | 5:24.00 | 140473 | 164772
9 | 36:36.73 | 3:22.00 | 164773 | 179922
10 | 39:58.73 | 3:57.31 | 179923 | 197728
11 | 43:56.29 | 4:13.69 | 197729 | 216772
12 | 48:10.23 | 3:45.23 | 216773 | 233670
13 | 51:55.46 | 4:24.12 | 233671 | 253482
14 | 56:19.58 | 4:15.07 | 253483 | 272614

Характеристики диапазона извлечения и сообщения об ошибках

Выбранный диапазон

Имя файла E:\Музіка!\from EAC\Рутенія\2011 - Хто живий\диск 2\Рутенія - Хто живий (диск 2).wav

Пиковый уровень 88.0 %
Скорость извлечения 2.6 X
Качество диапазона 99.9 %
CRC теста B03C2850
CRC копии B03C2850
Копирование... OK

Ошибок не произошло

AccurateRip: сводка

Трек 1 отсутствует в базе данных
Трек 2 отсутствует в базе данных
Трек 3 отсутствует в базе данных
Трек 4 отсутствует в базе данных
Трек 5 отсутствует в базе данных
Трек 6 отсутствует в базе данных
Трек 7 отсутствует в базе данных
Трек 8 отсутствует в базе данных
Трек 9 отсутствует в базе данных
Трек 10 отсутствует в базе данных
Трек 11 отсутствует в базе данных
Трек 12 отсутствует в базе данных
Трек 13 отсутствует в базе данных
Трек 14 отсутствует в базе данных

Ни одного трека нет в базе AccurateRip

Конец отчёта

==== Контрольная сумма отчёта 913743178532652BFA96552937178479B7BE65EE4827396BEC8FE8D919AC0F6A ====
Спектр
Тривалість: 01:00:35
Мова: українська
Аудіо-кодек: FLAC
Бітрейт: 811 кб/с
Склад:
    А. Лупиніс (УНСО)
    А. Сухий (Рут)
    Ю. Єгоров (Рут)
    Е. Драч (Рут)
    В. Лютий (УНСО)
    А. Бондаренко (Рут)
    В. Бобрович (УНСО)
    Г. Лук'яненко (Рут)
    Макс "Чайка" (УНСО)
    В. Мирончук (УНСО)
    І. Мазур (УНСО)
    К. Єрофеєв (Рут)
    Протоієрей Роман (УНСО)
    Р. Зайченко (УНСО)
    Стрільці


Видавець: "НАШ ФОРМАТ"
Тривалість: 05:15:44
Мова: українська
Аудіо-кодек: FLAC
Бітрейт: 712-930 кб/с
Джерело: власні ріпи власних CD
Додаткова інформація
Якщо Ви справді бажаєте підтримати українське - після прослуховування, якщо музика вам сподобалась, придбайте ліцензійний диск. Підтримаймо вітчизняних виконавців!


Золотий реліз (завантажене не впливає на рейтинг)
 Трекер:    Зареєстрований   

Завантажити / скачати українську музику



відео для новачків



 Зареєстрований:   2013-11-27 10:37
 Розмір:   2.37 GB 
 Оцінка музики:   9.8/10 (Голосів: 32)
   
Sloneniatko 
Частий відвідувач


З нами з: 06.10.09
Востаннє: 06.12.16
Повідомлень: 44

2012-08-15 20:54  
Очманіти! О це так несподіванка!
ssTAss 
Модератор музики


З нами з: 05.07.08
Востаннє: 06.12.16
Повідомлень: 10946

2012-08-15 22:26  
десь загубили рядок "Видавець"
а реліз справді розкішний

Додано через 36 секунд:

де того місця на компі взяти, га?

gosha.samovar 
VIP


З нами з: 08.09.10
Востаннє: 06.12.16
Повідомлень: 400

2012-08-15 22:52  
О, вибачте, завтра допишу видавців. Так старався, що просто забув)).
shutbanderas 
Поважний учасник


З нами з: 09.04.09
Востаннє: 04.12.16
Повідомлень: 227

2012-08-15 23:11  
Єх.... мені б в МП3
ssTAss 
Модератор музики


З нами з: 05.07.08
Востаннє: 06.12.16
Повідомлень: 10946

2012-08-15 23:57  
shutbanderas написано:
Єх.... мені б в МП3

тримайте http://toloka.to/t31260

Erebus_ 
Новенький


З нами з: 22.08.09
Востаннє: 21.06.15
Повідомлень: 14

2012-08-19 13:47  
От спасибі!
Розкішний подарунок.
Беру-беру-беру!

shutbanderas 
Поважний учасник


З нами з: 09.04.09
Востаннє: 04.12.16
Повідомлень: 227

2012-10-07 21:36  
Цитата:
тримайте http://toloka.to/t31260


Дякую... Ніби шукав але не зщнайшов.... Тепер обов'язково закачаю.

Pawlo1989 
Частий відвідувач


З нами з: 30.08.12
Востаннє: 02.12.16
Повідомлень: 32

2013-11-01 19:31  
А чи є шанси що з часом з'являться і інші альбоми з тих які вказані наприклад у вікі?
gosha.samovar 
VIP


З нами з: 08.09.10
Востаннє: 06.12.16
Повідомлень: 400

2013-11-01 23:49  
Коли оформлював реліз, дивився у вікі...
Річ у тім, що подана там інформація не викликає у мене довіри. Наприклад, два альбоми: "Легіонер. Дорогами війни та кохання" та "А серце — за Вкраїну…" - то взагалі альбоми не Рутенії, а Костя Єрофеєва. Щодо інших... Про них практично немає згадок у мережі. Деякі з них ("БЕЗІМЕННІ" - 2003) зустрічаються у досить низькій якості.

gosha.samovar 
VIP


З нами з: 08.09.10
Востаннє: 06.12.16
Повідомлень: 400

2013-11-27 10:51  
Увага!
Торрент-файл змінено! Додано CD 2006 - Під крилом кондора. Рутенія 1991.

OSx86 
Частий відвідувач


З нами з: 15.09.12
Востаннє: 12.11.16
Повідомлень: 39

2014-11-14 11:07  
gosha.samovar написано:

Коли оформлював реліз, дивився у вікі...
Річ у тім, що подана там інформація не викликає у мене довіри. Наприклад, два альбоми: "Легіонер. Дорогами війни та кохання" та "А серце — за Вкраїну…" - то взагалі альбоми не Рутенії, а Костя Єрофеєва. Щодо інших... Про них практично немає згадок у мережі. Деякі з них ("БЕЗІМЕННІ" - 2003) зустрічаються у досить низькій якості.


Українська вікі дуже не точна щодо вітчизняних виконавців... Постійна плутанина компіляцій та концертників з загальною дискографією... А ще бутлеги ліплять та те, що взагалі як альбом не видавалось

gosha.samovar 
VIP


З нами з: 08.09.10
Востаннє: 06.12.16
Повідомлень: 400

2014-11-15 11:54  
Ну от я особисто питав у Анатолія Сухого - він сказав, що тут - повне зібрання. Знову ж таки, він назвав ще диски "Легіонер" та "А серце за Вкраїну". В мене вони є, і я міг би їх сюди додати, але, по-моєму, це проти правил.
mr.killer 
Свій


З нами з: 11.08.10
Востаннє: 03.12.16
Повідомлень: 146

2016-07-20 19:54  
мій AIMP показує тривалість 06:27:21, перевірте будь ласка у себе
Ваш часовий пояс: GMT + 2 Години

Нова тема   Відповісти