Завантажити та скачати торренти українською


Зоряна Лужецька-Гжибовська - Де ти, пташино... (2011) [FLAC] | Ethno Folk

Нові коментарі

Нова тема   Відповісти
Останній раз роздавалося Myfordownloads (2016-09-30)
Автор Повідомлення
ingwar 
Модератор літератури


З нами з: 08.03.08
Востаннє: 02.12.16
Повідомлень: 1200

2012-08-14 13:58  
Зоряна Лужецька-Гжибовська - Де ти, пташино... (2011) [FLAC] | Ethno Folk

Зоряна Лужецька-Гжибовська - Де ти, пташино... (2011) [FLAC] | Ethno Folk


Стиль: Ethno Folk Instrumental
Країна, місто: Польща, Краків
Видавець: Самвидав
Виконавці:
Зоряна Лужецька-Гжибовська
Пісні:
    01. В Україну
    02. Ой на гору козак воду носить
    03. Очеретом качки гнала
    04. Де ти, пташко
    05. Бойківчанка
    06. Осіннє золото
    07. Понад сад-виноград
    08. Лелеченьки
    09. Прелюдія
    10. Заквітчали дівчатонька
    11. Маєва нічка
    12. Тиха вода
    13. Чотири воли пасу я
    14. Ой вийду я на вулицю
    15. Берізонька
    16. Плач Ярославни
    17. Ой ти знав, нащо брав

Тривалість: 00:37:57
Мова: українська
Аудіо-кодек: FLAC
Бітрейт: 833 кб/с
Джерело: Власний ріп
Додаткова інформація:
Зоряна Лужецька-Гжибовська родом із Західної України, живе у Кракові.
log
Exact Audio Copy V1.0 beta 3 from 29. August 2011

EAC extraction logfile from 14. August 2012, 14:29

Zoriana Luzetska-Gzgybovska / De ty, ptashyno

Used drive : HL-DT-STDVDRAM GSA-T20L Adapter: 1 ID: 0

Read mode : Secure
Utilize accurate stream : Yes
Defeat audio cache : No
Make use of C2 pointers : Yes

Read offset correction : 667
Overread into Lead-In and Lead-Out : No
Fill up missing offset samples with silence : Yes
Delete leading and trailing silent blocks : No
Null samples used in CRC calculations : Yes
Used interface : Native Win32 interface for Win NT & 2000
Gap handling : Not detected, thus appended to previous track

Used output format : Internal WAV Routines
Sample format : 44.100 Hz; 16 Bit; Stereo

TOC of the extracted CD

Track | Start | Length | Start sector | End sector
---------------------------------------------------------
1 | 0:00.00 | 1:39.11 | 0 | 7435
2 | 1:39.11 | 2:44.50 | 7436 | 19785
3 | 4:23.61 | 1:09.40 | 19786 | 25000
4 | 5:33.26 | 2:49.29 | 25001 | 37704
5 | 8:22.55 | 1:25.52 | 37705 | 44131
6 | 9:48.32 | 2:23.38 | 44132 | 54894
7 | 12:11.70 | 2:15.73 | 54895 | 65092
8 | 14:27.68 | 1:50.05 | 65093 | 73347
9 | 16:17.73 | 3:14.45 | 73348 | 87942
10 | 19:32.43 | 2:38.41 | 87943 | 99833
11 | 22:11.09 | 3:05.40 | 99834 | 113748
12 | 25:16.49 | 1:51.12 | 113749 | 122085
13 | 27:07.61 | 2:27.17 | 122086 | 133127
14 | 29:35.03 | 1:08.23 | 133128 | 138250
15 | 30:43.26 | 2:41.56 | 138251 | 150381
16 | 33:25.07 | 3:12.29 | 150382 | 164810
17 | 36:37.36 | 1:20.01 | 164811 | 170811

Track 1

Filename C:\Users\IC\Desktop\Створити папку (2)\01 V Ukrayinu.wav

Peak level 92.1 %
Extraction speed 8.7 X
Track quality 100.0 %
Copy CRC 7BB7A925
Track not present in AccurateRip database
Copy OK

Track 2

Filename C:\Users\IC\Desktop\Створити папку (2)\02 Oy na goru kozakh vodu nosyt'.wav

Peak level 96.6 %
Extraction speed 8.7 X
Track quality 100.0 %
Copy CRC 8BF735C9
Track not present in AccurateRip database
Copy OK

Track 3

Filename C:\Users\IC\Desktop\Створити папку (2)\03 Ocheretom kachkhy gnala.wav

Peak level 96.6 %
Extraction speed 9.8 X
Track quality 100.0 %
Copy CRC 04A0D2B2
Track not present in AccurateRip database
Copy OK

Track 4

Filename C:\Users\IC\Desktop\Створити папку (2)\04 De ty, ptashyno.wav

Peak level 96.6 %
Extraction speed 9.6 X
Track quality 100.0 %
Copy CRC 68B30D17
Track not present in AccurateRip database
Copy OK

Track 5

Filename C:\Users\IC\Desktop\Створити папку (2)\05 Boykivchanka.wav

Peak level 96.6 %
Extraction speed 8.8 X
Track quality 99.7 %
Copy CRC 8B88B6B4
Track not present in AccurateRip database
Copy OK

Track 6

Filename C:\Users\IC\Desktop\Створити папку (2)\06 Osinnie zoloto.wav

Peak level 96.6 %
Extraction speed 11.2 X
Track quality 100.0 %
Copy CRC EEE9DF3A
Track not present in AccurateRip database
Copy OK

Track 7

Filename C:\Users\IC\Desktop\Створити папку (2)\07 Ponad sad-vynograd.wav

Peak level 96.6 %
Extraction speed 10.5 X
Track quality 100.0 %
Copy CRC A2F884DE
Track not present in AccurateRip database
Copy OK

Track 8

Filename C:\Users\IC\Desktop\Створити папку (2)\08 Lelechen'ka.wav

Peak level 96.6 %
Extraction speed 11.8 X
Track quality 100.0 %
Copy CRC 7FD82EE1
Track not present in AccurateRip database
Copy OK

Track 9

Filename C:\Users\IC\Desktop\Створити папку (2)\09 Preliudia.wav

Peak level 96.6 %
Extraction speed 11.2 X
Track quality 100.0 %
Copy CRC D9756AC8
Track not present in AccurateRip database
Copy OK

Track 10

Filename C:\Users\IC\Desktop\Створити папку (2)\10 Zakvitchaly divchaton'ka.wav

Peak level 96.6 %
Extraction speed 11.6 X
Track quality 100.0 %
Copy CRC 1465F68B
Track not present in AccurateRip database
Copy OK

Track 11

Filename C:\Users\IC\Desktop\Створити папку (2)\11 Maieva nichka.wav

Peak level 96.6 %
Extraction speed 13.4 X
Track quality 100.0 %
Copy CRC 6520997D
Track not present in AccurateRip database
Copy OK

Track 12

Filename C:\Users\IC\Desktop\Створити папку (2)\12 Tykha voda.wav

Peak level 96.6 %
Extraction speed 11.9 X
Track quality 100.0 %
Copy CRC F1935EF8
Track not present in AccurateRip database
Copy OK

Track 13

Filename C:\Users\IC\Desktop\Створити папку (2)\13 Chotyry voly pasu ya.wav

Peak level 96.6 %
Extraction speed 11.9 X
Track quality 99.8 %
Copy CRC 8AEDA3B7
Track not present in AccurateRip database
Copy OK

Track 14

Filename C:\Users\IC\Desktop\Створити папку (2)\14 Oy vyidu ya na vulytsiu.wav

Peak level 96.6 %
Extraction speed 14.3 X
Track quality 100.0 %
Copy CRC A082D89A
Track not present in AccurateRip database
Copy OK

Track 15

Filename C:\Users\IC\Desktop\Створити папку (2)\15 Berizon'ka.wav

Peak level 96.6 %
Extraction speed 13.4 X
Track quality 100.0 %
Copy CRC AA42644D
Track not present in AccurateRip database
Copy OK

Track 16

Filename C:\Users\IC\Desktop\Створити папку (2)\16 Plach Yaroslavny.wav

Peak level 96.6 %
Extraction speed 13.9 X
Track quality 100.0 %
Copy CRC 92DB46B5
Track not present in AccurateRip database
Copy OK

Track 17

Filename C:\Users\IC\Desktop\Створити папку (2)\17 Oy ty znav nashcho brav.wav

Peak level 96.6 %
Extraction speed 14.9 X
Track quality 99.7 %
Copy CRC E6B8848F
Track not present in AccurateRip database
Copy OK

None of the tracks are present in the AccurateRip database

No errors occurred

End of status report
Обкладинка
Цей же диск у форматі MP3: Зоряна Лужецька-Гжибовська - Де ти, пташино... (2011) [MP3] | Ethno Folk

Якщо Ви справді бажаєте підтримати українське - після прослуховування, якщо музика вам сподобалась, придбайте ліцензійний диск. Підтримаймо вітчизняних виконавців!


Срібний реліз (на рейтинг впливає 50% завантаженого)
 Трекер:    Зареєстрований   

Завантажити / скачати українську музику



відео для новачків



 Зареєстрований:   2012-08-14 13:58
 Розмір:   220 MB 
 Оцінка музики:   10/10 (Голосів: 4)
   
11112222 
Новенький


З нами з: 11.03.13
Востаннє: 03.02.15
Повідомлень: 1

2013-03-11 17:36  
Ну дуже вже хороші пісні
Ваш часовий пояс: GMT + 2 Години

Нова тема   Відповісти