Завантажити та скачати торренти українською


Сльози сонця / Tears of the Sun (2003) 720p Ukr/Eng | Sub Eng

Нові коментарі

Нова тема   Відповісти
Автор Повідомлення
DеLight 
Відео Гуртом - фільмокрай
Відео Гуртом - фільмокрай


З нами з: 24.08.11
Востаннє: 17.11.16
Повідомлень: 663

2012-08-13 22:10  
Сльози сонця / Tears of the Sun (2003) 720p Ukr/Eng | Sub Eng


Сльози сонця / Tears of the Sun (2003) 720p Ukr/Eng | Sub Eng


Жанр: драма, екшн, трилер
Країна: США



Кіностудія / кінокомпанія: Cheyenne Enterprises, Michael Lobell Productions, Revolution Studios
Режисер: Антуан Фуку / Antoine Fuqua
Актори: Брюс Вілліс / Bruce Willis, Моніка Беллуччі / Monica Bellucci, Коул Гаузер / Cole Hauser, Імонн Вокер / Eamonn Walker, Джонні Месснер / Johnny Messner, Нік Чінланд / Nick Chinlund, Чарльз Інґрем / Charles Ingram, Пол Френсіс / Paul Francis, Чад Сміт / Chad Smith, Том Скеррітт / Tom Skerritt, Малік Боуенс / Malick Bowens, Аваовіеї Аґіє / Awaovieyi Agie, Акосуа Бусія / Akosua Busia, Хадар Бусія-Сінґлетон / Hadar Busia-Singleton, Іда Оньянґо / Ida Onyango


Перед лейтенантом Вотерсом, досвідченим командиром загону Морських котиків, ставлять майже нездійсненну задачу - проникнути в саме серце Нігерії. Завдання - розшукати і звільнити з полону лікаря. Коли вони знаходять нещасну жінку в забутому селищі, виявляється, що характер операції треба терміново міняти: лікар заявляє, що покине джунглі, лише тоді коли разом з нею солдати звільнять ще 70 біженців.



Тривалість: 02:00:55
Якість: 720p

Відео:
кодек:
розмір кадру: 1280 x 534
бітрейт: 6367 кб/с

Аудіо # 1:
мова: українська
переклад: двоголосий закадровий
кодек: 5.1
бітрейт: 448 кб/с

Аудіо #2:
мова: англійська
переклад: оригінал
кодек: 5.1
бітрейт: 448 кб/с

Субтитри:
мова: англійська
тип: програмні (м'які)
формат: *.srt

Збережені оригінальні чаптери як на Blu-ray


->переглянути<-

Код:
General
Unique ID                        : 246322252472049097282723834866325756260 (0xB94FF0B0FA971B94B8FAE62C232B9964)
Complete name                    : D:\Torrents\Tears.of.the.Sun.2003.720p...-HDv0T.eng.ru (1).mkv
Format                           : Matroska
File size                        : 6.26 GiB
Duration                         : 2h 0mn
Overall bit rate                 : 7 410 Kbps
Movie name                       : Tears of the Sun (2003) 720p [Ukr, Eng, sub Eng] [Hurtom & 0day] by Delight
Encoded date                     : UTC 2012-08-13 19:52:50
Writing application              : mkvmerge v5.7.0 ('The Whirlwind') built on Jul  8 2012 20:08:51
Writing library                  : libebml v1.2.3 + libmatroska v1.3.0

Video
ID                               : 1
Format                           : AVC
Format/Info                      : Advanced Video Codec
Format profile                   : [email protected]
Format settings, CABAC           : Yes
Format settings, ReFrames        : 6 frames
Codec ID                         : V_MPEG4/ISO/AVC
Duration                         : 2h 0mn
Bit rate                         : 6 367 Kbps
Width                            : 1 280 pixels
Height                           : 534 pixels
Display aspect ratio             : 2.35:1
Frame rate                       : 23.976 fps
Color space                      : YUV
Chroma subsampling               : 4:2:0
Bit depth                        : 8 bits
Scan type                        : Progressive
Bits/(Pixel*Frame)               : 0.388
Stream size                      : 5.38 GiB (86%)
Title                            : Tears of the Sun (2003) 720p
Writing library                  : core 104 r1713 c276662
Encoding settings                : cabac=1 / ref=6 / deblock=1:-3:-3 / analyse=0x3:0x113 / me=umh / subme=10 / psy=1 / psy_rd=1.00:0.00 / mixed_ref=1 / me_range=32 / chroma_me=1 / trellis=2 / 8x8dct=1 / cqm=0 / deadzone=21,11 / fast_pskip=0 / chroma_qp_offset=-2 / threads=3 / sliced_threads=0 / nr=0 / decimate=1 / interlaced=0 / constrained_intra=0 / bframes=3 / b_pyramid=2 / b_adapt=2 / b_bias=0 / direct=3 / weightb=1 / open_gop=0 / weightp=2 / keyint=250 / keyint_min=23 / scenecut=40 / intra_refresh=0 / rc_lookahead=40 / rc=crf / mbtree=1 / crf=18.0 / qcomp=0.80 / qpmin=10 / qpmax=51 / qpstep=4 / ip_ratio=1.40 / aq=1:0.60
Language                         : English

Audio #1
ID                               : 2
Format                           : AC-3
Format/Info                      : Audio Coding 3
Mode extension                   : CM (complete main)
Codec ID                         : A_AC3
Duration                         : 2h 0mn
Bit rate mode                    : Constant
Bit rate                         : 448 Kbps
Channel(s)                       : 6 channels
Channel positions                : Front: L C R, Side: L R, LFE
Sampling rate                    : 48.0 KHz
Bit depth                        : 16 bits
Compression mode                 : Lossy
Stream size                      : 387 MiB (6%)
Title                            : 5.1; 448 kbps; двоголосий закадровий {1+1}
Language                         : Ukrainian

Audio #2
ID                               : 3
Format                           : AC-3
Format/Info                      : Audio Coding 3
Mode extension                   : CM (complete main)
Codec ID                         : A_AC3
Duration                         : 2h 0mn
Bit rate mode                    : Constant
Bit rate                         : 448 Kbps
Channel(s)                       : 6 channels
Channel positions                : Front: L C R, Side: L R, LFE
Sampling rate                    : 48.0 KHz
Bit depth                        : 16 bits
Compression mode                 : Lossy
Stream size                      : 387 MiB (6%)
Title                            : 5.1; 448 kbps; original
Language                         : English

Text
ID                               : 4
Format                           : UTF-8
Codec ID                         : S_TEXT/UTF8
Codec ID/Info                    : UTF-8 Plain Text
Title                            : full
Language                         : English

Menu
00:00:00.000                     : en:00:00:00.000
00:07:31.826                     : en:00:07:31.826
00:15:26.467                     : en:00:15:26.467
00:23:23.569                     : en:00:23:23.569
00:30:12.811                     : en:00:30:12.811
00:36:49.666                     : en:00:36:49.666
00:45:13.544                     : en:00:45:13.544
00:53:35.879                     : en:00:53:35.879
01:03:13.081                     : en:01:03:13.081
01:09:24.494                     : en:01:09:24.494
01:16:02.892                     : en:01:16:02.892
01:24:27.604                     : en:01:24:27.604
01:32:14.821                     : en:01:32:14.821
01:39:17.827                     : en:01:39:17.827
01:44:19.503                     : en:01:44:19.503
01:48:34.925                     : en:01:48:34.925
->переглянути<-















Джерело: | За запис з ТБ подяка Romario_O , за синхронізацію - _oles, за постер - bober-mober


Срібний реліз (на рейтинг впливає 50% завантаженого)
 Трекер:    Зареєстрований   

Завантажити / скачати фільм українською



відео для новачків



 Зареєстрований:   2012-08-13 22:10
 Розмір:   6.26 GB 
 Оцінка фільму:   9.6/10 (Голосів: 11)
   
Інші релізи
Gurmulitz 
Новенький


З нами з: 30.05.12
Востаннє: 06.12.16
Повідомлень: 3

2012-08-28 14:58  
Фільм дивитися,але цей реліз іде у мене з зеленою "тінню" від всіх екранних образів.
taras1994 
Почесний оцифрувальник літератури


З нами з: 23.03.12
Востаннє: 30.11.16
Повідомлень: 5096

2012-09-14 19:25  
Я дивився в мене тіні нема.

А щодо фільму, то цікавий. Але люди найогидніші створіння на землі, навіщо проводити етнічні чистки?

ProgBassing 
Відео Гуртом - фільмокрай
Відео Гуртом - фільмокрай


З нами з: 08.03.08
Востаннє: 09.12.16
Повідомлень: 608

2014-05-16 20:45  
Фільм-відкриття... для мене... дуже несподіваний акторський дует та й саме кіно дуже якісне вдалося!
Ваш часовий пояс: GMT + 2 Години

Нова тема   Відповісти