Завантажити та скачати торренти українською


Отже, війна [Режисерська версія] / This Means War [Director's Cut] (2012) 720p Ukr/Eng | Sub Ukr/Eng

Нові коментарі

Нова тема   Відповісти
Автор Повідомлення
DеLight 
Відео Гуртом - фільмокрай
Відео Гуртом - фільмокрай


З нами з: 24.08.11
Востаннє: 17.11.16
Повідомлень: 664

2012-08-12 18:20  
Отже, війна [Режисерська версія] / This Means War [Director's Cut] (2012) 720p Ukr/Eng | Sub Ukr/Eng

Отже, війна [Режисерська версія] / This Means War [Director's Cut] (2012) 720p Ukr/Eng | Sub Ukr/Eng

«2 шпигуна - 1 проблема»


Жанр: екшн, комедія, романтичний
Країна: США



Кіностудія / кінокомпанія: Overbrook Entertainment, The Robert Simonds Company, Robert Simonds Productions
Режисер: Джозеф МакДжинті Найкол / Joseph McGinty Nichol
Актори: Різ Візерспун / Reese Witherspoon, Кріс Пайн / Chris Pine, Том Харді / Tom Hardy, Тіль Швайгер / Til Schweiger, Челсі Хандлер / Chelsea Handler, Джон Пол Руттан / John Paul Ruttan, Ебігейл Спенсер / Abigail Spencer, Анджела Бассетт / Angela Bassett, Розмарі Харріс / Rosemary Harris, Джордж Туліатос / George Touliatos, Клінт Карлтон / Clint Carleton, Уоррен Крісті / Warren Christie, Лілі Саваста / Leela Savasta, Натассія Мальте / Natassia Malthe, Лаура Вандервурт / Laura Vandervoort


Два секретні агенти, які до того ж і щирі друзі, закохуються в одну і ту ж саму жінку, але жоден не бажає поступитися іншому.





Тривалість: 01:44:00
Якість: 720p [джерело: Blu-Ray Disc EUR / 1080p; ріп від Sky]

Відео:
кодек:
розмір кадру: 1280 x 534
бітрейт: 4 768 кб/с

Аудіо #1:
мова: українська
переклад: професійний дубльований
кодек: 5.1
бітрейт: 448 кб/с

Аудіо #2:
мова: англійська
переклад: оригінал
кодек: 5.1
бітрейт: 448 кб/с

Джерело озвучення:


Субтитри #1:
мова: українська
тип: програмні (м'які)
формат: *.srt
джерело: Blu-Ray Disc EUR
редагування: Delight

Субтитри #2:
мова: англійська
тип: програмні (м'які)
формат: *.srt



->переглянути<-





->переглянути<-

Код:
General
Unique ID                        : 184780745826186613148883687603839055225 (0x8B037A26B7BE5AC18EDCF5B43C2E3579)
Complete name                    : D:\Torrents\This Means War [Director's Cut] (2012) 720p [Ukr, Eng, sub Ukr, Eng] [Blu-ray EUR & HQCLUB].mkv
Format                           : Matroska
File size                        : 4.20 GiB
Duration                         : 1h 44mn
Overall bit rate                 : 5 779 Kbps
Movie name                       : This Means War [Director's Cut] (2012) 720p [Ukr, Eng, sub Ukr, Eng] [Blu-ray EUR & HQCLUB] by Delight
Encoded date                     : UTC 2012-08-12 11:22:08
Writing application              : mkvmerge v5.7.0 ('The Whirlwind') built on Jul  8 2012 20:08:51
Writing library                  : libebml v1.2.3 + libmatroska v1.3.0

Video
ID                               : 1
Format                           : AVC
Format/Info                      : Advanced Video Codec
Format profile                   : [email protected]
Format settings, CABAC           : Yes
Format settings, ReFrames        : 9 frames
Codec ID                         : V_MPEG4/ISO/AVC
Duration                         : 1h 44mn
Bit rate                         : 4 768 Kbps
Width                            : 1 280 pixels
Height                           : 534 pixels
Display aspect ratio             : 2.35:1
Frame rate                       : 23.976 fps
Color space                      : YUV
Chroma subsampling               : 4:2:0
Bit depth                        : 8 bits
Scan type                        : Progressive
Bits/(Pixel*Frame)               : 0.291
Stream size                      : 3.46 GiB (83%)
Title                            : This Means War [Director's Cut] (2012) 720p
Writing library                  : core 120 r2164 da19765
Encoding settings                : cabac=1 / ref=9 / deblock=1:-3:-3 / analyse=0x3:0x113 / me=umh / subme=9 / psy=1 / psy_rd=1.00:0.00 / mixed_ref=1 / me_range=64 / chroma_me=1 / trellis=2 / 8x8dct=1 / cqm=0 / deadzone=21,11 / fast_pskip=1 / chroma_qp_offset=-2 / threads=6 / sliced_threads=0 / nr=0 / decimate=1 / interlaced=0 / bluray_compat=0 / constrained_intra=0 / bframes=12 / b_pyramid=2 / b_adapt=2 / b_bias=0 / direct=1 / weightb=1 / open_gop=0 / weightp=2 / keyint=230 / keyint_min=22 / scenecut=40 / intra_refresh=0 / rc=cqp / mbtree=0 / qp=21 / ip_ratio=1.40 / pb_ratio=1.30 / aq=0
Language                         : English

Audio #1
ID                               : 2
Format                           : AC-3
Format/Info                      : Audio Coding 3
Mode extension                   : CM (complete main)
Codec ID                         : A_AC3
Duration                         : 1h 44mn
Bit rate mode                    : Constant
Bit rate                         : 448 Kbps
Channel(s)                       : 6 channels
Channel positions                : Front: L C R, Side: L R, LFE
Sampling rate                    : 48.0 KHz
Bit depth                        : 16 bits
Compression mode                 : Lossy
Stream size                      : 333 MiB (8%)
Title                            : 5.1; 448 kbps; професійний дубльований (Blu-ray EUR)
Language                         : Ukrainian

Audio #2
ID                               : 3
Format                           : AC-3
Format/Info                      : Audio Coding 3
Mode extension                   : CM (complete main)
Codec ID                         : A_AC3
Duration                         : 1h 44mn
Bit rate mode                    : Constant
Bit rate                         : 448 Kbps
Channel(s)                       : 6 channels
Channel positions                : Front: L C R, Side: L R, LFE
Sampling rate                    : 48.0 KHz
Bit depth                        : 16 bits
Compression mode                 : Lossy
Stream size                      : 333 MiB (8%)
Title                            : 5.1; 448 kbps; original
Language                         : English

Text #1
ID                               : 4
Format                           : UTF-8
Codec ID                         : S_TEXT/UTF8
Codec ID/Info                    : UTF-8 Plain Text
Title                            : full (Blu-ray EUR)
Language                         : Ukrainian

Text #2
ID                               : 5
Format                           : UTF-8
Codec ID                         : S_TEXT/UTF8
Codec ID/Info                    : UTF-8 Plain Text
Title                            : full
Language                         : English

Menu
00:00:00.000                     : en:00:00:00.000
00:06:05.824                     : en:00:06:05.824
00:11:14.257                     : en:00:11:14.257
00:15:22.463                     : en:00:15:22.463
00:18:37.033                     : en:00:18:37.033
00:22:51.203                     : en:00:22:51.203
00:24:51.365                     : en:00:24:51.365
00:28:22.701                     : en:00:28:22.701
00:32:03.713                     : en:00:32:03.713
00:37:39.466                     : en:00:37:39.466
00:42:10.820                     : en:00:42:10.820
00:45:56.253                     : en:00:45:56.253
00:48:48.676                     : en:00:48:48.676
00:52:16.133                     : en:00:52:16.133
00:57:02.878                     : en:00:57:02.878
01:03:23.258                     : en:01:03:23.258
01:08:42.035                     : en:01:08:42.035
01:16:30.586                     : en:01:16:30.586
01:19:47.241                     : en:01:19:47.241
01:23:12.362                     : en:01:23:12.362
01:28:23.089                     : en:01:28:23.089
01:33:12.170                     : en:01:33:12.170
01:37:07.655                     : en:01:37:07.655
01:38:50.049                     : en:01:38:50.049




->переглянути<-












Джерело: &
Особиста оцінка: 8


 Трекер:    Зареєстрований   

Завантажити / скачати фільм українською



відео для новачків



 Зареєстрований:   2012-08-12 18:20
 Розмір:   4.2 GB 
 Оцінка фільму:   9.1/10 (Голосів: 20)
   
11FrYkT 
Модератор відео


З нами з: 20.02.11
Востаннє: 06.12.16
Повідомлень: 3100

2012-08-12 18:25  
Досить не поганий фільм, особиста оцінка 7,5/10.
Дякую!

kacher2 
Свій


З нами з: 02.10.10
Востаннє: 05.11.16
Повідомлень: 128

2012-08-13 09:03  
Як на мене - фільм недуже, надто все тупо й пафосно.
DеLight 
Відео Гуртом - фільмокрай
Відео Гуртом - фільмокрай


З нами з: 24.08.11
Востаннє: 17.11.16
Повідомлень: 664

2012-08-13 23:46  
kacher2 написано:
Як на мене - фільм недуже, надто все тупо й пафосно.

А мені навпаки, навіть дуже сподобався, підняв настрій, а це вже дорогого коштує...

waldi-hurtom 
VIP


З нами з: 07.10.12
Востаннє: 05.12.16
Повідомлень: 611

2012-12-13 16:26  
Двічі намагався подивитись цей фільм. Так і не зміг. Настільки низькопробний фільм, що вимагає повної відключки мізків. Іноді краще жувати, ніж говорити. Трюки та спецефекти не компенсують відсутності думок, логики та ідей. Повне безглуздя. Натомість думка про марнування часу заважає зрозуміти жалку вподобу гумору. Моя суб'єктивна оцінка - одиниця.
jack 
Поважний учасник


З нами з: 11.03.11
Востаннє: 06.12.16
Повідомлень: 173

2014-09-16 00:32  
kacher2 написано:
Як на мене - фільм недуже, надто все тупо й пафосно.

waldi-hurtom написано:
Двічі намагався подивитись цей фільм. Так і не зміг. Настільки низькопробний фільм

Прочитав ваші рецензії... і завагався, чи дивитись цей фільм... Але переглянув і задоволений. Яку ви особливу логіку хотіли б бачити в комедії. Скажу вам одне, чуваки, ви ще не бачили низькопробних і пафосних комедій. Фільм супер!!! І кінцівка для мене була не очікувана... Адже в Голівудських фільмах, переважно, все розвивається по-іншому... Як на мене. Мегафайнезна комедія!!! І тільки під час її перегляду задумався, як українське "файно" сильно схоже на англійське "fine" Wink (1) Усім раджу!

Ваш часовий пояс: GMT + 2 Години

Нова тема   Відповісти