Завантажити та скачати торренти українською


Мистецтво виходити сухим з води / The Art of Getting By (2011) 720p Eng | Sub Ukr/Eng

Нові коментарі

Нова тема   Відповісти
Автор Повідомлення
Mosgito 
Новенький


З нами з: 06.08.12
Востаннє: 10.08.16
Повідомлень: 5

2012-08-11 19:46  
Мистецтво виходити сухим з води / The Art of Getting By (2011) 720p Eng | Sub Ukr/Eng

Мистецтво виходити сухим з води / The Art of Getting By (2011) 720p Eng | Sub Ukr/Eng


Жанр: романтичний, мелодрама, комедія
Країна: США



Кіностудія / кінокомпанія: Island Bound Productions, Mint Pictures, Atlantic Pictures
Режисер: Гевін Вісен
Актори: Фреді Хаймор, Емма Робертс, Майкл Ангарано, Елізабет Рісер, Блер Андервуд, Рита Вілсон

Сюжет:
Джордж, самотній і фаталістичний підліток, який за цілий рік у старшій школі не зробив жодного домашнього завдання, знайомиться зі Саллі, популярною, але складною дівчиною, яка визнає в ньому свою споріднену душу ...


Тривалість: 01:23:17
Якість:
Відео:
кодек: AVC
розмір кадру: 1280 х 536
бітрейт: 3998 кб/с

Аудіо:
мова: англійська
переклад: оригінал
кодек: 5.1
бітрейт: 1510 кб/с

Джерело озвучення:


Субтитри:
мова: українська
тип: програмні (м'які)
формат: *.srt
джерело: власні, зроблені на основі англійських

Субтитри:
мова: англійська
тип: програмні (м'які)
формат: *.srt

Світлини:





MediaInfo
General
Complete name : The Art of Getting By (2011) 720p Eng Sub Ukr&Eng [Hurtom].mkv
Format : Matroska
File size : 3.27 GiB
Duration : 1h 23mn
Overall bit rate : 5 620 Kbps
Encoded date : UTC 2012-08-11 13:13:36
Writing application : mkvmerge v5.7.0 ('The Whirlwind') built on Jul 8 2012 20:08:51
Writing library : libebml v1.2.3 + libmatroska v1.3.0
Video #1
ID : 1
Format : AVC
Format/Info : Advanced Video Codec
Format profile : [email protected]
Format settings, CABAC : Yes
Format settings, ReFrames : 5 frames
Muxing mode : Container [email protected]
Codec ID : V_MPEG4/ISO/AVC
Duration : 1h 23mn
Bit rate : 3 998 Kbps
Nominal bit rate : 4 110 Kbps
Width : 1 280 pixels
Height : 536 pixels
Display aspect ratio : 2.35:1
Frame rate : 23.976 fps
Resolution : 8 bits
Colorimetry : 4:2:0
Scan type : Progressive
Bits/(Pixel*Frame) : 0.243
Stream size : 2.33 GiB (71%)
Writing library : core 119 r2106 07efeb4
Encoding settings : cabac=1 / ref=5 / deblock=1:-1:-1 / analyse=0x3:0x113 / me=umh / subme=7 / psy=1 / psy_rd=1.00:0.00 / mixed_ref=1 / me_range=16 / chroma_me=1 / trellis=1 / 8x8dct=1 / cqm=0 / deadzone=21,11 / fast_pskip=1 / chroma_qp_offset=-2 / threads=12 / sliced_threads=0 / nr=0 / decimate=1 / interlaced=0 / bluray_compat=0 / constrained_intra=0 / bframes=3 / b_pyramid=2 / b_adapt=2 / b_bias=0 / direct=3 / weightb=1 / open_gop=0 / weightp=2 / keyint=250 / keyint_min=23 / scenecut=40 / intra_refresh=0 / rc_lookahead=40 / rc=2pass / mbtree=1 / bitrate=4110 / ratetol=1.0 / qcomp=0.60 / qpmin=0 / qpmax=69 / qpstep=4 / cplxblur=20.0 / qblur=0.5 / vbv_maxrate=50000 / vbv_bufsize=50000 / nal_hrd=none / ip_ratio=1.40 / aq=1:1.00
Audio #2
ID : 2
Format :
Format/Info : Digital Theater Systems
Codec ID : A_DTS
Duration : 1h 23mn
Bit rate mode : Constant
Bit rate : 1 510 Kbps
Channel(s) : 6 channels
Channel positions : Front: L C R, Side: L R, LFE
Sampling rate : 48.0 KHz
Resolution : 24 bits
Stream size : 899 MiB (27%)
Text #3
ID : 3
Format : UTF-8
Codec ID : S_TEXT/UTF8
Codec ID/Info : UTF-8 Plain Text
Title : Від Mosgito
Language : Ukrainian
Text #4
ID : 4
Format : UTF-8
Codec ID : S_TEXT/UTF8
Codec ID/Info : UTF-8 Plain Text
Title : Original


Джерело: , та власна робота
Особиста оцінка: 8 - мені сподобалося

Коментар: В мене обмеження у 250 кб/с на швидкість відвантаження і немає можливості цілодобово сідувати. Тож, всі надії на нових сідів.


 Трекер:    Зареєстрований   

Завантажити / скачати фільм українською



відео для новачків



 Зареєстрований:   2012-08-11 23:34
 Розмір:   3.27 GB 
 Оцінка фільму:   9.5/10 (Голосів: 13)
   
taras1994 
Почесний оцифрувальник літератури


З нами з: 23.03.12
Востаннє: 30.11.16
Повідомлень: 5096

2012-08-11 19:50  
фільм цікавий? сюжет такий собі.
Mosgito 
Новенький


З нами з: 06.08.12
Востаннє: 10.08.16
Повідомлень: 5

2012-08-11 19:56  
Принаймні, не шкодую, що витратив час на його пергляд та переклад.
taras1994 
Почесний оцифрувальник літератури


З нами з: 23.03.12
Востаннє: 30.11.16
Повідомлень: 5096

2012-08-11 20:16  
Mosgito написано:
Принаймні, не шкодую, що витратив час на його пергляд та переклад.

потрібно дивиться,

DiGen 
Модератор HD та координатор Команди HD
Модератор HD та координатор Команди HD


З нами з: 12.11.09
Востаннє: 24.06.13
Повідомлень: 1452

2012-08-11 20:32  
Активні посилання заборонені.
Це попередження усне.
Читаємо правила.

taras1994 
Почесний оцифрувальник літератури


З нами з: 23.03.12
Востаннє: 30.11.16
Повідомлень: 5096

2012-08-11 20:40  
Хтось має фільм cheaters , дивився уривок і він мені сподобався.
ratbol 
Модератор HD


З нами з: 03.02.09
Востаннє: 01.12.16
Повідомлень: 1088

2012-08-11 20:43  
— розмір скрінів 1280 на 545 пікселів, а в оформленні і МІ — 1280х536, чому?
Mosgito написано:
4110 кб/с
— має бути:
Mosgito написано:
Bit rate : 3 998 Kbps

Mosgito написано:
додатково: також доступні в роздачі окремим файлом

— це зайве, лишні папки ні до чого, попрошу вас переробити торент без папки, після того як ви поясните і виправите розбіжність розміру скріншотів. Українські субтитри можете залити на обмінник, це дозволено.

Mosgito 
Новенький


З нами з: 06.08.12
Востаннє: 10.08.16
Повідомлень: 5

2012-08-11 22:23  
З приводу розміру скріншотів - то я сам не розумію в чому справа. В медіаінфо пише 1280х536 (дивився через плеєр і спец. програму MediaInfo), а в плеєрі при відтворенні розмір 1280х545, такого розміру і скріншоти, бо в ньому їх і робив. Я користуюсь KMplayer-ом.

З бітрейдом схожа історія. MediaInfo - 4410, а KMplayer - 3998. Помітив, що MediaInfo відображає Nominal bit rate, замість просто Bit rate. Не знаю, яка між ними різниця, і хоч вона мізерна виправлю.

Про активні посилання вибачаюсь. Це мій перший реліз, а правил багато, недогледів.

Спробував зробити скріншот в Media Player Classic. Той видає 1280х536.

Отже, переробимо.

Bohdan237 
Відео Гуртом - фільмокрай
Відео Гуртом - фільмокрай


З нами з: 12.02.12
Востаннє: 05.12.16
Повідомлень: 383

2012-08-11 23:02  
Фільм хороший хоча й драма, але дівчатам думаю сподобається.
Mosgito 
Новенький


З нами з: 06.08.12
Востаннє: 10.08.16
Повідомлень: 5

2012-08-11 23:48  
Щоб виправити помилки, помічені модераторами, довелося перезалити торрент (видалено субтитри окремими файлами). Будь ласка, перезавантажте його, хто вже почав качати.

Приношу свої вибачення за незручності, спричинені моєю некомпетентністю.

P.S. : Я не припиняю роздачу по старому торрент-файлу для тих, хто вже почав качати, щоб трафік не був використаний марно.
Їм потрібно докачати по старому торрент-файлу, а потім скачати новий, добавити в торрент клієнт,
вибравши вже скачаний фільм, і роздача поновиться після перевірки.

iro4ka_skin 
Оцифрування книг Гуртом
Оцифрування книг Гуртом


З нами з: 16.05.09
Востаннє: 04.12.16
Повідомлень: 656

2012-08-12 00:00  
фільм перенести Субтитроване укрмовою...
Mosgito 
Новенький


З нами з: 06.08.12
Востаннє: 10.08.16
Повідомлень: 5

2012-08-12 01:06  
Не посоромлюсь спитати де і як це можна зробити, якщо вкрай необхідно?
Є розділи Субтитроване українською та HD українською, от би ще Субтитроване HD українською ...

bugs20 
Новенький


З нами з: 24.02.12
Востаннє: 27.11.16
Повідомлень: 1

2012-09-05 18:29  
а переклад український буде? а то дивитися на субтитрах якось не дуже
фільм дуже класний бачив його з російським дубляжем, якби вийшла українська доріжка з радістю б подивився!

Snuryus 
VIP


З нами з: 24.07.10
Востаннє: 29.11.16
Повідомлень: 382

2013-02-12 00:47  
Фільм сподобався, але взагалі міг бути ще краще. Занадто прямолінійні персонажі та сюжет. А момент зміни світогляду героя якийсь невиразний. Хоча це я вже придираюсь, фільм на 7/10.
MarthaBereza 
Новенький


З нами з: 26.10.13
Востаннє: 04.12.16
Повідомлень: 2

2016-03-02 15:14  
еге-гей, поставте фільм на роздачу Sad (1)

upd : дякую Happy

Ваш часовий пояс: GMT + 2 Години

Нова тема   Відповісти