Завантажити та скачати торренти українською


Механічний апельсин / A Clockwork Orange (1971) 720p-mini Ukr / Eng

Нові коментарі

Нова тема   Відповісти
Автор Повідомлення
Anonymous 







2012-08-11 13:27  
Механічний апельсин / A Clockwork Orange (1971) 720p-mini Ukr / Eng




Жанр: драма
Країна: Велика Британія

Top 250 #62

Кіностудія / кінокомпанія: Warner Brothers
Режисер: Стенлі Кубрик
Актори: Малкольм МакДавелл, Варрен Кларк, Майкл Бейтс, Джеймс Маркус, Майкл Тарн, Патрік Меджі

Сюжет:
Режисер знайомить глядача із головним героєм – підлітком на ім’я Алекс (Малькольм МакДавелл), котрий, як на свій вік, є особою агресивною – ґвалтує жінок, грабує будинки та здійснює акти «ультранасилля». У цьому йому допомагає компанія друзів – дивакуватих хлопців, для яких Алекс є беззаперечним лідером. Поруч із цим у свідомості Алекса живе альтер-еґо – підліток захоплюється класичною музикою, зокрема 9-ою симфонією Бетховена.

Одного разу, здійснивши вбивство, Алекс потрапляє до тюрми. Будучи ув’язненим, Алекс починає перейматись власним психічним станом – тюремні пута стають для нього нестерпними. Саме тому хлопець погоджується взяти участь у медичних експериментах, які люб’язно пропонує уряд. Лікування полягає у тому, що медики намагаються виробити у людині (злочинці зокрема) умовний рефлекс на секс та насилля. Таким чином, лише при думці про секс чи насилля, Алекса вражав потужної сили приступ нудоти. Ті ж відчуття хлопець переживав, коли чув улюблену 9-у симфонію Бетховена.
Вікіпедія


Тривалість: 02:16:36
Якість: з BD-Remux
Відео:
кодек:
розмір кадру: 1188х720
бітрейт: 2871 кб/с

Аудіо # 1:
мова: українська
переклад: багатоголосий закадровий
кодек: 5.1
бітрейт: 448 кб/с

Аудіо # 2:
мова: англійська
переклад: оригінал
кодек: 5.1
бітрейт: 448 кб/с

Джерело озвучення:
ТО "Цікава ідея" на замовлення Hurtom.com

MediaInfo
General
Unique ID : 212136664612661625849959814261686154847 (0x9F9809146E39A20CA0FBFD30526C365F)
Complete name : A Clockwork Orange (1971) [ukr,eng] [Hurtom].mkv
Format : Matroska
Format version : Version 2
File size : 3.60 GiB
Duration : 2h 16mn
Overall bit rate : 3 769 Kbps
Encoded date : UTC 2012-08-11 09:18:02
Writing application : mkvmerge v5.7.0 ('The Whirlwind') built on Jul 8 2012 20:08:51
Writing library : libebml v1.2.3 + libmatroska v1.3.0

Video
ID : 1
Format : AVC
Format/Info : Advanced Video Codec
Format profile : [email protected]
Format settings, CABAC : Yes
Format settings, ReFrames : 8 frames
Codec ID : V_MPEG4/ISO/AVC
Duration : 2h 16mn
Bit rate : 2 871 Kbps
Width : 1 188 pixels
Height : 720 pixels
Display aspect ratio : 1.650
Frame rate : 23.976 fps
Color space : YUV
Chroma subsampling : 4:2:0
Bit depth : 8 bits
Scan type : Progressive
Bits/(Pixel*Frame) : 0.140
Stream size : 2.67 GiB (74%)
Title : Механічний апельсин / A Clockwork Orange (1971) [Hurtom]
Writing library : core 125 r2208 d9d2288
Encoding settings : cabac=1 / ref=8 / deblock=1:-1:-1 / analyse=0x3:0x133 / me=umh / subme=9 / psy=1 / psy_rd=1.00:0.15 / mixed_ref=1 / me_range=16 / chroma_me=1 / trellis=2 / 8x8dct=1 / cqm=0 / deadzone=21,11 / fast_pskip=1 / chroma_qp_offset=-3 / threads=12 / lookahead_threads=2 / sliced_threads=0 / nr=0 / decimate=1 / interlaced=0 / bluray_compat=0 / constrained_intra=0 / bframes=3 / b_pyramid=2 / b_adapt=2 / b_bias=0 / direct=3 / weightb=1 / open_gop=0 / weightp=2 / keyint=240 / keyint_min=23 / scenecut=40 / intra_refresh=0 / rc_lookahead=60 / rc=2pass / mbtree=1 / bitrate=2871 / ratetol=1.0 / qcomp=0.60 / qpmin=0 / qpmax=69 / qpstep=4 / cplxblur=20.0 / qblur=0.5 / ip_ratio=1.40 / aq=1:1.00
Default : Yes
Forced : No

Audio #1
ID : 2
Format : AC-3
Format/Info : Audio Coding 3
Mode extension : CM (complete main)
Format settings, Endianness : Big
Codec ID : A_AC3
Duration : 2h 16mn
Bit rate mode : Constant
Bit rate : 448 Kbps
Channel(s) : 6 channels
Channel positions : Front: L C R, Side: L R, LFE
Sampling rate : 48.0 KHz
Bit depth : 16 bits
Compression mode : Lossy
Stream size : 438 MiB (12%)
Title : ТО "Цікава ідея" на замовлення Hurtom.com
Language : Ukrainian
Default : Yes
Forced : No

Audio #2
ID : 3
Format : AC-3
Format/Info : Audio Coding 3
Mode extension : CM (complete main)
Format settings, Endianness : Big
Codec ID : A_AC3
Duration : 2h 16mn
Bit rate mode : Constant
Bit rate : 448 Kbps
Channel(s) : 6 channels
Channel positions : Front: L C R, Side: L R, LFE
Sampling rate : 48.0 KHz
Bit depth : 16 bits
Compression mode : Lossy
Stream size : 438 MiB (12%)
Language : English
Default : No
Forced : No
log
[info]: frame I:1158 Avg QP:16.76 size:114300
[info]: frame P:51990 Avg QP:18.90 size: 30601
[info]: frame B:143374 Avg QP:20.98 size: 8497
[info]: consecutive B-frames: 1.2% 2.8% 5.3% 90.7%
[info]: mb I I16..4: 6.3% 77.5% 16.2%
[info]: mb P I16..4: 0.8% 5.1% 0.6% P16..4: 50.9% 20.3% 16.1% 0.3% 0.1% skip: 5.8%
[info]: mb B I16..4: 0.1% 0.5% 0.0% B16..8: 48.7% 6.8% 1.2% direct: 4.5% skip:38.2% L0:46.8% L1:47.3% BI: 5.9%
[info]: 8x8 transform intra:78.9% inter:66.1%
[info]: direct mvs spatial:98.2% temporal:1.8%
[info]: coded y,uvDC,uvAC intra: 84.2% 86.0% 61.1% inter: 23.7% 27.5% 5.7%
[info]: i16 v,h,dc,p: 36% 22% 9% 34%
[info]: i8 v,h,dc,ddl,ddr,vr,hd,vl,hu: 9% 10% 5% 9% 14% 13% 14% 11% 14%
[info]: i4 v,h,dc,ddl,ddr,vr,hd,vl,hu: 11% 15% 3% 8% 14% 13% 14% 10% 13%
[info]: i8c dc,h,v,p: 42% 24% 18% 16%
[info]: Weighted P-Frames: Y:5.1% UV:1.2%
[info]: ref P L0: 34.9% 10.0% 21.2% 7.5% 8.6% 6.0% 7.3% 4.0% 0.4% 0.0%
[info]: ref B L0: 71.3% 13.3% 5.9% 3.5% 2.7% 2.2% 1.2%
[info]: ref B L1: 94.5% 5.5%
Інформація про українську доріжку

Українську озвучку створено студією ТО "Цікава ідея" на замовлення Hurtom.com в рамках проекту "Хочеш кіно українською? Замовляй!"

Детальніше про проект.


Дякуємо користувачам, що фінансово допомогли проекту:
vifilo, yuvial, Zoryan71, bookovina, sunshadow, novns, Анонім, TriVVet, Qualcuno, ValicV, makata, painz, Шейнога Станіслав, Відьмачечок, sl.adamenko, Ihorco, vladyk, vitbol, k1k1k1, oleh_oleh, mikrom, roman.paint, chuba001, merlin_zaraza, daedan, zeleneserce, Yareban, BrMM, maksimka9112007, bsdkom, avatararij, Thaddeus, Slavko Uzhhorod, OLENKA1980, yarik_ratnik, brizident, parovoz, glogus, indiana7, rakab, grim86, bondar, ratiborsky, hello_world, Klymkiv_a, Mitrukhin, govjiogter, loiknazar, Анонім, zanevsky, КОЗАК СЕРГІЙ, "Мерзотники", Thaddeus, newvolya, Макрос, Loki, romm77, maxus.bender, Arhont, Kalynka Rosso, molotokk, Sn00pY_UA, busbus, гілка, Qualcuno, Rost3, анонім, panernest, tyma1, Vasill, орестт, vkozak77, sanyatyoma, zinkognito, fishMD, olfed111, ThugRx, serzholino16x, Yarrm, zolotoy, Volodymyr Shpikulov, partos, MisterR, lan44er, StiN, pooh007, gitaralover, Dmytro D, Avis, ivasykvv, TarasTaras, Bzick, Romdoc, kopycom, ExFinder, Roman N, B_Volodumur, alexandr_b, thefir, Dimka, somnambula, Оксана Середа, Роман Бліхарський, MarianB, sania2011, Makovej, ORFEO, Dim-ON, demydd, igor911, Golota, ppk21, MutuLI, Анонім, Джерх, Гривник, Chaka_bum, elwolf, virtus8hur, Sergo_k_s_v, NemoInFire, willian
Також дякуємо користувачам, що надали фінансову допомогу, але побажали бути анонімними.
Дакуємо трекеру Torrents.net.ua за підтримку проекту.

Детальніше про збір грошей.


Джерело:
Постер від thefir

УВАГА!
Фільм не рекомендовано для перегляду особам до 18 років.

В оригіналі фільму присутні російські слова, наприклад droogies, moloko plus, horrorshow, malchik, devotchka - їх було збережено і в перекладі.


Авторський реліз (завантажувати можна без реєстрації)
 Трекер:    Зареєстрований   

Завантажити / скачати фільм українською



відео для новачків



 Зареєстрований:   2012-08-11 13:35
 Розмір:   3.6 GB 
 Оцінка фільму:   9.2/10 (Голосів: 32)
   
taras1994 
Почесний оцифрувальник літератури


З нами з: 23.03.12
Востаннє: 30.11.16
Повідомлень: 5096

2012-08-11 14:38  
Вже майже 720р.
Konfucius 
Управління
Управління


З нами з: 30.09.07
Востаннє: 04.12.16
Повідомлень: 4741

2012-08-11 16:17  
taras1994 написано:
Вже майже 720р.

-mini в даному випадку використовується виключно для позначення малого об'єму файлу, жодним чином не позначаючись на розмірі кадру (це факт) і якості (це суб'єктивно, але підтвердженням може бути порівняння скріншотів з опису). Якщо хтось думає, що ріп навіть в два рази більший в об'ємі обов'язково якісніший - прошу створити скріншоти однакових кадрів - побачимо.

Джерх 
Свій


З нами з: 17.03.12
Востаннє: 03.12.16
Повідомлень: 105

2012-08-11 17:06  
Нарешті.
LuchaLibreChihuahua 
Новенький


З нами з: 10.05.12
Востаннє: 08.04.16
Повідомлень: 9

2012-10-14 20:19  
книжка цікава
тре глянути фільм))

Ваш часовий пояс: GMT + 2 Години

Нова тема   Відповісти