Завантажити та скачати торренти українською


Області темряви [Розширена версія] / Limitless [Unrated Extended Cut] (2011) AVC Ukr/Eng | Sub Ukr/Eng

Нові коментарі

Нова тема   Відповісти
Автор Повідомлення
DеLight 
Відео Гуртом - фільмокрай
Відео Гуртом - фільмокрай


З нами з: 24.08.11
Востаннє: 17.11.16
Повідомлень: 663

2012-08-09 20:08  
Області темряви [Розширена версія] / Limitless [Unrated Extended Cut] (2011) AVC Ukr/Eng | Sub Ukr/Eng

Області темряви [Розширена версія] / Limitless [Unrated Extended Cut] (2011) AVC Ukr/Eng | Sub Ukr/Eng


Жанр: детектив, фантастика, трилер
Країна: США



Кіностудія / кінокомпанія: Relativity Media, Virgin Produced, Rogue, Many Rivers Productions, Boy of the Year, Intermedia
Режисер: Ніл Бергер / Neil Burger
Актори: Бредлі Купер / Bradley Cooper, Роберт Де Ніро / Robert De Niro, Еббі Корніш / Abbie Cornish, Ендрю Говард / Andrew Howard, Анна Фріл / Anna Friel, Джоні Вайтворт / Johnny Whitworth, Томас Арана / Tomas Arana, Роберт Джон Бьорк / Robert John Burke, Даррен Голдштейн / Darren Goldstein, Нед Ейзенберг / Ned Eisenberg, Т.В. Карпіо / T.V. Carpio, Річард Бакінс / Richard Bekins, Патрісія Калембер / Patricia Kalember, Сінді Кац / Cindy Katz, Браян Ентоні Bілсон / Brian Anthony Wilson


Едді - творча людина, у якої продовжується тривала творча депресія. Аби здолати цю проблему він, за допомогою свого друга-науковця, вводить собі новий, ще не досліджений препарат для покращення діяльності мозку. Результатом стала фантастична працездатність - мозок краще за найпотужніші комп'ютери обробляв інформацію і подавав фантазії найкращі ідеї. Та такі здібності швидко привернули увагу не дуже чесних людей, зокрема магната Карла ван Луна, який вирішив, що Едді легко заробить для нього кілька мільярдів, якщо його як слід простимулювати. Тепер у Едді замість однієї інтелектуальної проблеми має дві практичні - втеча від посіпак Карла і боротьба з неочікуваною побічною дією, яка проявляється все сильніше.





Тривалість: 01:45:33
Якість: AVC [джерело: BD Remux; ріп від Vaippp]

Відео:
кодек:
розмір кадру: 1028 x 428
бітрейт: 2 063 кб/с

Аудіо #1:
мова: українська
переклад: багатоголосий закадровий
кодек: 5.1
бітрейт: 448 кб/с

Джерело озвучення:


Аудіо #2:
мова: англійська
переклад: оригінал
кодек: 5.1
бітрейт: 448 кб/с

Субтитри #1:
мова: українська
тип: програмні (м'які)
формат: *.srt

Субтитри #2:
мова: англійська
тип: програмні (м'які)
формат: *.srt




->переглянути<-

General
Unique ID : 187676633274166405210574769157547653104 (0x8D31346D040EE729A593C98060A277F0)
Complete name : D:\Torrents\Limitless [Unrated Extended Cut] (2011) AVC [Ukr, Eng, sub Ukr, Eng] [Hurtom & HQ-Video].mkv
Format : Matroska
File size : 2.18 GiB
Duration : 1h 45mn
Overall bit rate : 2 962 Kbps
Movie name : Limitless [Unrated Extended Cut] (2011) AVC [Ukr,Eng, sub Ukr, Eng] [Hurtom & HQ-ViDEO] by Delight
Encoded date : UTC 2012-08-09 13:49:44
Writing application : mkvmerge v5.7.0 ('The Whirlwind') built on Jul 8 2012 20:08:51
Writing library : libebml v1.2.3 + libmatroska v1.3.0
Cover : Yes

Video
ID : 1
Format : AVC
Format/Info : Advanced Video Codec
Format profile : [email protected]
Format settings, CABAC : Yes
Format settings, ReFrames : 7 frames
Codec ID : V_MPEG4/ISO/AVC
Duration : 1h 45mn
Bit rate : 2 063 Kbps
Width : 1 028 pixels
Height : 428 pixels
Display aspect ratio : 2.40:1
Frame rate : 23.976 fps
Color space : YUV
Chroma subsampling : 4:2:0
Bit depth : 8 bits
Scan type : Progressive
Bits/(Pixel*Frame) : 0.196
Stream size : 1.48 GiB (68%)
Title : Limitless [Unrated Extended Cut] (2011) AVC
Writing library : core 115 r1995 c1e60b9
Encoding settings : cabac=1 / ref=7 / deblock=1:-2:-1 / analyse=0x3:0x113 / me=umh / subme=10 / psy=1 / psy_rd=1.00:0.15 / mixed_ref=1 / me_range=32 / chroma_me=1 / trellis=2 / 8x8dct=1 / cqm=0 / deadzone=21,11 / fast_pskip=0 / chroma_qp_offset=-3 / threads=12 / sliced_threads=0 / nr=0 / decimate=1 / interlaced=0 / bluray_compat=0 / constrained_intra=0 / bframes=7 / b_pyramid=2 / b_adapt=2 / b_bias=0 / direct=3 / weightb=1 / open_gop=0 / weightp=2 / keyint=250 / keyint_min=23 / scenecut=40 / intra_refresh=0 / rc_lookahead=40 / rc=2pass / mbtree=0 / bitrate=2063 / ratetol=1.0 / qcomp=0.70 / qpmin=1 / qpmax=63 / qpstep=4 / cplxblur=20.0 / qblur=0.5 / vbv_maxrate=50000 / vbv_bufsize=62500 / nal_hrd=none / ip_ratio=1.40 / pb_ratio=1.30 / aq=2:0.90 / zones=142498,151857,q=35
Language : English

Audio #1
ID : 2
Format : AC-3
Format/Info : Audio Coding 3
Mode extension : CM (complete main)
Codec ID : A_AC3
Duration : 1h 45mn
Bit rate mode : Constant
Bit rate : 448 Kbps
Channel(s) : 6 channels
Channel positions : Front: L C R, Side: L R, LFE
Sampling rate : 48.0 KHz
Bit depth : 16 bits
Compression mode : Lossy
Stream size : 338 MiB (15%)
Title : 5.1; 448 kbps; багатоголосий закадровий {1+1}
Language : Ukrainian

Audio #2
ID : 3
Format : AC-3
Format/Info : Audio Coding 3
Mode extension : CM (complete main)
Codec ID : A_AC3
Duration : 1h 45mn
Bit rate mode : Constant
Bit rate : 448 Kbps
Channel(s) : 6 channels
Channel positions : Front: L C R, Side: L R, LFE
Sampling rate : 48.0 KHz
Bit depth : 16 bits
Compression mode : Lossy
Stream size : 338 MiB (15%)
Title : 5.1; 448 kbps; original
Language : English

Text #1
ID : 4
Format : UTF-8
Codec ID : S_TEXT/UTF8
Codec ID/Info : UTF-8 Plain Text
Language : Ukrainian

Text #2
ID : 5
Format : UTF-8
Codec ID : S_TEXT/UTF8
Codec ID/Info : UTF-8 Plain Text
Language : English

Menu
00:00:00.000 : en:00:00:00.000
00:03:49.104 : en:00:03:49.104
00:06:55.915 : en:00:06:55.915
00:11:05.707 : en:00:11:05.707
00:16:28.362 : en:00:16:28.362
00:20:40.072 : en:00:20:40.072
00:24:20.834 : en:00:24:20.834
00:28:55.859 : en:00:28:55.859
00:34:09.172 : en:00:34:09.172
00:38:20.173 : en:00:38:20.173
00:42:26.419 : en:00:42:26.419
00:47:03.821 : en:00:47:03.821
00:51:24.248 : en:00:51:24.248
00:54:45.532 : en:00:54:45.532
00:59:36.948 : en:00:59:36.948
01:05:59.664 : en:01:05:59.664
01:09:07.935 : en:01:09:07.935
01:12:11.952 : en:01:12:11.952
01:15:12.299 : en:01:15:12.299
01:18:52.561 : en:01:18:52.561
01:22:20.352 : en:01:22:20.352
01:27:53.643 : en:01:27:53.643
01:32:29.961 : en:01:32:29.961
01:39:01.644 : en:01:39:01.644
->переглянути<-














Джерело: &
Вдячний за працю: slavik_v_z - запис з ТБ, Lan - українська доріжка 5.1, MarianB - українські субтитри
Особиста оцінка: 9




 Трекер:    Зареєстрований   

Завантажити / скачати фільм українською



відео для новачків



 Зареєстрований:   2012-08-09 20:08
 Розмір:   2.18 GB 
 Оцінка фільму:   9.8/10 (Голосів: 81)
   
Bushido 
VIP


З нами з: 27.12.10
Востаннє: 20.05.16
Повідомлень: 278

2012-08-09 20:24  
Вартий фільм. Яко не бачили, то вельми раджу.
Himmelskind 
VIP


З нами з: 07.06.10
Востаннє: 22.09.16
Повідомлень: 256

2012-08-09 20:25  
Часом мені здається, що наше тб перекладає фільми не з англійської, а з російської.
Limitless — Необмежений (переклад назви оригіналу, логічно зістиковується з сюжетом самого фільму).
А що за області темряви? Які ще області темряви? З якої стелі вони взяли цю назву?

ewgenus 
Поважний учасник


З нами з: 03.03.09
Востаннє: 13.10.16
Повідомлень: 194

2012-08-09 20:56  
Himmelskind
Це мабуть продюсери нахімічили.

DеLight 
Відео Гуртом - фільмокрай
Відео Гуртом - фільмокрай


З нами з: 24.08.11
Востаннє: 17.11.16
Повідомлень: 663

2012-08-09 21:04  
Himmelskind
Безмежний розум: області темряви - це українська повна назва, а "Області темряви" - однозначно калька з російської...

Himmelskind 
VIP


З нами з: 07.06.10
Востаннє: 22.09.16
Повідомлень: 256

2012-08-09 21:15  
Dоnу написано:

Himmelskind
Безмежний розум: області темряви - це українська повна назва, а "Області темряви" - однозначно калька з російської...

Область чи області — все одно нічого спільного з фільмом немає, або ж я просто не знаю куди дивитися.

TPEM 
Відео Гуртом - фільмокрай
Відео Гуртом - фільмокрай


З нами з: 30.01.09
Востаннє: 09.12.16
Повідомлень: 398

2012-08-09 21:21  
Himmelskind написано:
Часом мені здається, що наше тб перекладає фільми не з англійської, а з російської.

Так майже завжди і є )

Himmelskind 
VIP


З нами з: 07.06.10
Востаннє: 22.09.16
Повідомлень: 256

2012-08-09 21:22  
То сумно.
Snuryus 
VIP


З нами з: 24.07.10
Востаннє: 08.12.16
Повідомлень: 382

2012-08-10 10:24  
Та Області темряви це назва книги, яку головний актор писав увесвь фільм ...
Воїн 
Відео Гуртом - дизайнер
Відео Гуртом - дизайнер


З нами з: 30.06.08
Востаннє: 05.12.16
Повідомлень: 1130

2012-08-22 18:59  
Хороший фільм, щось новеньке.

І не знаю що як торет в мене шляхбитрафнувся, але яякогось біса вільм завантажився з назуою "Ice Age 2 The Meltdown (2006) [ukr] [Hurtom]" )))

waloha 
VIP


З нами з: 29.12.09
Востаннє: 09.12.16
Повідомлень: 323

2012-09-06 00:23  
Оце так фантазія розгулялася після перегляду стрічки, давно я такого не бачив подібного, реально вартий перегляду. Я б з задоволенням подивився і б продовження, якби зняли. Благо фантазія після прийняття таблетки дозволить написати гарний сценарій Happy
SHEVA1991 
Поважний учасник


З нами з: 29.11.12
Востаннє: 03.12.16
Повідомлень: 200

2013-08-18 21:02  
Хороший фільм! мені сподобався!!!! Бредлі Купер супер!!!!
Ваш часовий пояс: GMT + 2 Години

Нова тема   Відповісти