Завантажити та скачати торренти українською


28 тижнів потому / 28 Weeks Later (2007) 720p Ukr/Eng | Sub Multi

Нові коментарі

Нова тема   Відповісти
Автор Повідомлення
DеLight 
Відео Гуртом - фільмокрай
Відео Гуртом - фільмокрай


З нами з: 24.08.11
Востаннє: 17.11.16
Повідомлень: 664

2012-08-08 22:09  
28 тижнів потому / 28 Weeks Later (2007) 720p Ukr/Eng | Sub Multi

28 тижнів потому / 28 Weeks Later (2007) 720p Ukr/Eng | Sub Multi



Альтернатива










«Втекти неможливо! Вірус Всюди!»


Жанр: жахи, триллер
Країна: Великобританія, Іспанія



Кіностудія / кінокомпанія: DNA Films, Figment Films, Fox Atomic, Koan Films, Sociedad General de Cine (SOGECINE) S.A., The Film Council
Режисер: Хуан Карлос Фреснаділло / Juan Carlos Fresnadillo
Актори: Роберт Карлайл / Robert Carlyle, Роуз Бірн / Rose Byrne, Джеремі Реннер / Jeremy Renner, Гарольд Перрінау / Harold Perrineau, Кетрін МакКормак / Catherine McCormack, Ідріс Ельба / Idris Elba, Імоджен Путс / Imogen Poots, Макінтош Маглетон / Mackintosh Muggleton, Аманда Уолкер / Amanda Walker, Шахід Ахмед / Shahid Ahmed, Гарфілд Морган / Garfield Morgan, Емілі Бічем / Emily Beecham, Бінс Ель-Балаві / Beans El-Balawi, Меган Попель / Meghan Popiel, Стюарт Александр / Stewart Alexander


Минуло півроку з того моменту, як вірус знищив Лондон. Епідемія, що перетворила більшу частину людства в зомбі, вщухла, і влада ухвалила рішення знову заселити спустошене місто. Вони не передбачали, що вірус всього лише затаївся, щоб повернутися і викликати ще більш страшну катастрофу ...





Тривалість: 01:40:06
Якість: 720p

Відео:
кодек:
розмір кадру: 1280 x 694
бітрейт: 5 356 кб/с

Аудіо #1:
мова: українська
переклад: двоголосий закадровий
кодек: 5.1
бітрейт: 448 кб/с

Джерело озвучення:


Аудіо #2:
мова: англійська
переклад: оригінал
кодек: 5.1
бітрейт: 448 кб/с

Субтитри:
мова: англійська, болгарські, чеські, голландська, фінська, грецька, угорська, норвезька, польська, румунська, швецька, російська
тип: програмні (м'які)
формат: *.srt




->переглянути<-

General
Unique ID : 251360657212073872158897404518357854056 (0xBD1A4D395D3EE11187E318A88A44E768)
Complete name : D:\Moviemaker\28 Weeks Later (2007) 720p [Ukr, Eng, sub Multi12] [Hurtom].mkv
Format : Matroska
File size : 4.37 GiB
Duration : 1h 40mn
Overall bit rate : 6 255 Kbps
Movie name : 28 Weeks Later (2007) 720p [Ukr, Eng, sub Multi12] [Hurtom & RuTracker] by Delight
Encoded date : UTC 2012-08-08 17:43:11
Writing application : mkvmerge v5.7.0 ('The Whirlwind') built on Jul 8 2012 20:08:51
Writing library : libebml v1.2.3 + libmatroska v1.3.0

Video
ID : 1
Format : AVC
Format/Info : Advanced Video Codec
Format profile : [email protected]
Format settings, CABAC : Yes
Format settings, ReFrames : 16 frames
Codec ID : V_MPEG4/ISO/AVC
Duration : 1h 40mn
Bit rate : 5 356 Kbps
Width : 1 280 pixels
Height : 694 pixels
Display aspect ratio : 16:9
Frame rate : 23.976 fps
Color space : YUV
Chroma subsampling : 4:2:0
Bit depth : 8 bits
Scan type : Progressive
Bits/(Pixel*Frame) : 0.251
Stream size : 3.66 GiB (84%)
Title : 28 Weeks Later (2007) 720p
Writing library : core 65 r1028M 83baa7f
Encoding settings : cabac=1 / ref=16 / deblock=0:0:0 / analyse=0x3:0x113 / me=umh / subme=9 / psy_rd=1.0:0.0 / mixed_ref=1 / me_range=16 / chroma_me=1 / trellis=2 / 8x8dct=1 / cqm=0 / deadzone=21,11 / chroma_qp_offset=-2 / threads=3 / nr=0 / decimate=0 / mbaff=0 / bframes=4 / b_pyramid=1 / b_adapt=1 / b_bias=0 / direct=3 / wpredb=1 / keyint=250 / keyint_min=25 / scenecut=40(pre) / rc=2pass / bitrate=5356 / ratetol=1.0 / qcomp=0.60 / qpmin=10 / qpmax=51 / qpstep=4 / cplxblur=20.0 / qblur=0.5 / ip_ratio=1.40 / pb_ratio=1.30 / aq=1:1.00
Language : English

Audio #1
ID : 2
Format : AC-3
Format/Info : Audio Coding 3
Mode extension : CM (complete main)
Codec ID : A_AC3
Duration : 1h 40mn
Bit rate mode : Constant
Bit rate : 448 Kbps
Channel(s) : 6 channels
Channel positions : Front: L C R, Side: L R, LFE
Sampling rate : 48.0 KHz
Bit depth : 16 bits
Compression mode : Lossy
Stream size : 321 MiB (7%)
Title : 5.1; 448 kbps; двоголосий закадровий {1+1}
Language : Ukrainian

Audio #2
ID : 3
Format : AC-3
Format/Info : Audio Coding 3
Mode extension : CM (complete main)
Codec ID : A_AC3
Duration : 1h 40mn
Bit rate mode : Constant
Bit rate : 448 Kbps
Channel(s) : 3 channels
Channel positions : Front: L R, Side: C
Sampling rate : 48.0 KHz
Bit depth : 16 bits
Compression mode : Lossy
Stream size : 321 MiB (7%)
Title : 5.1; 448 kbps; original
Language : English

Text #1
ID : 4
Format : UTF-8
Codec ID : S_TEXT/UTF8
Codec ID/Info : UTF-8 Plain Text
Language : English

Text #2
ID : 5
Format : UTF-8
Codec ID : S_TEXT/UTF8
Codec ID/Info : UTF-8 Plain Text
Language : Bulgarian

Text #3
ID : 6
Format : UTF-8
Codec ID : S_TEXT/UTF8
Codec ID/Info : UTF-8 Plain Text
Language : Czech

Text #4
ID : 7
Format : UTF-8
Codec ID : S_TEXT/UTF8
Codec ID/Info : UTF-8 Plain Text
Language : Dutch

Text #5
ID : 8
Format : UTF-8
Codec ID : S_TEXT/UTF8
Codec ID/Info : UTF-8 Plain Text
Language : Finnish

Text #6
ID : 9
Format : UTF-8
Codec ID : S_TEXT/UTF8
Codec ID/Info : UTF-8 Plain Text
Language : Greek

Text #7
ID : 10
Format : UTF-8
Codec ID : S_TEXT/UTF8
Codec ID/Info : UTF-8 Plain Text
Language : Hungarian

Text #8
ID : 11
Format : UTF-8
Codec ID : S_TEXT/UTF8
Codec ID/Info : UTF-8 Plain Text
Language : Norwegian

Text #9
ID : 12
Format : UTF-8
Codec ID : S_TEXT/UTF8
Codec ID/Info : UTF-8 Plain Text
Language : Polish

Text #10
ID : 13
Format : UTF-8
Codec ID : S_TEXT/UTF8
Codec ID/Info : UTF-8 Plain Text
Language : Romanian

Text #11
ID : 14
Format : UTF-8
Codec ID : S_TEXT/UTF8
Codec ID/Info : UTF-8 Plain Text
Language : Swedish

Text #12
ID : 15
Format : UTF-8
Codec ID : S_TEXT/UTF8
Codec ID/Info : UTF-8 Plain Text
Language : Russian
->переглянути<-












Джерело: &
Подяка olgaya за запис з ТБ та robotron005 за синхронізацію доріжки
Особиста оцінка: 7




 Трекер:    Зареєстрований   

Завантажити / скачати фільм українською



відео для новачків



 Зареєстрований:   2012-08-08 22:09
 Розмір:   4.37 GB 
 Оцінка фільму:   9.5/10 (Голосів: 25)
   
Andriy063 
Відео Гуртом - підтримка та поширення
Відео Гуртом - підтримка та поширення


З нами з: 26.09.10
Востаннє: 03.12.16
Повідомлень: 371

2012-08-08 22:14  
Dоnу написано:

Аудіо #2:
мова: українська
переклад: оригінал
кодек: 5.1
бітрейт: 448 кб/с


виправте

Додано через 35 секунд:

це типу озвучили нещодавно? бо раніше кацапщину крутили здається

DеLight 
Відео Гуртом - фільмокрай
Відео Гуртом - фільмокрай


З нами з: 24.08.11
Востаннє: 17.11.16
Повідомлень: 664

2012-08-08 22:33  
Andriy063
Andriy063 написано:
виправте

Дякую, виправив.

Andriy063 написано:
це типу озвучили нещодавно? бо раніше кацапщину крутили здається

та ні, на Гуртомі з 21.11.2011 ця озвучка

Bohdan237 
Відео Гуртом - фільмокрай
Відео Гуртом - фільмокрай


З нами з: 12.02.12
Востаннє: 05.12.16
Повідомлень: 383

2012-08-08 22:53  
Dоnу написано:
та ні, на Гуртомі з 21.11.2011 ця озвучка

Серйозно, а я чомусь тільки тепер помітив?Теж подумав що щось новеньке!
Класно дякую за ріп.

ratbol 
Модератор HD


З нами з: 03.02.09
Востаннє: 01.12.16
Повідомлень: 1088

2012-08-09 07:58  
Доріжку синхронізував robotron005, olgaya - запис з ТБ.
DеLight 
Відео Гуртом - фільмокрай
Відео Гуртом - фільмокрай


З нами з: 24.08.11
Востаннє: 17.11.16
Повідомлень: 664

2012-08-09 08:50  
ratbol
Записано зміни!

ratbol 
Модератор HD


З нами з: 03.02.09
Востаннє: 01.12.16
Повідомлень: 1088

2012-08-09 09:08  
Dоnу
Добре.
Надалі старайтесь вибирати ріпи з левелом не вище 4.1, щоб уникнути несумістності ріпу з деякими хардовими плеєрами.
Format profile : [email protected]
Також бібліотеку кодування поновішу, хоча б за 100.
Writing library : core 65 r1028M 83baa7f

М_а_м_а_Й 
VIP


З нами з: 12.08.11
Востаннє: 05.12.16
Повідомлень: 375

2012-08-09 23:14  
Один з найкращих фільмів жанру 9/10
AntonGhost 
Свій


З нами з: 25.01.14
Востаннє: 04.12.16
Повідомлень: 91

2014-07-05 23:15  
А можна доріжку окремо?
Харків"янин 
Свій


З нами з: 11.12.13
Востаннє: 17.09.16
Повідомлень: 142

2014-09-08 05:08  
Станьте хтось на роздачу!
Ua.bos_01 
VIP


З нами з: 22.06.15
Востаннє: 03.12.16
Повідомлень: 1290

2015-09-05 20:16  
Чудовий фільм на тему зомбіапокаліпсису! Логічне продовження однойменного фільму "28 днів по тому". Мені дуже сподобалось. Раджу до перегляду.
Ваш часовий пояс: GMT + 2 Години

Нова тема   Відповісти