Завантажити та скачати торренти українською


Візантійська принцеса / Tirante el Blanco (2006) 1080p Ukr/Eng | Sub Ukr/Eng

Нові коментарі

Нова тема   Відповісти
Останній раз роздавалося Ostafius (2016-05-25)
Автор Повідомлення
urij546724 
Відео Гуртом - фільмокрай
Відео Гуртом - фільмокрай


З нами з: 16.03.10
Востаннє: 08.12.16
Повідомлень: 5222

2012-08-08 18:07  
Візантійська принцеса / Tirante el Blanco (2006) 1080p Ukr/Eng | Sub Ukr/Eng


Слоган:
«Константинополь... XV століття... Палацові таємниці... Інтриги.... Все дуже відверто...»


Жанр: пригодницький
Країна: Великобританія (), Італія (), Іспанія ()



Кіностудія / кінокомпанія: DeA Planeta Home Entertainment, Feelmax, Future Film Group
Режисер: Вісент Аранда (Vicente Aranda)
Актори: Каспар Зафер (Casper Zafer), Естер Нубіола (Esther Nubiola), Леонор Вайтінг (Leonor Watling), Інгрід Рубіо (Ingrid Rubio), Джейн Ешер (Jane Asher), Чарлі Кокс (Charlie Cox), Сід Мітчел (Sid Mitchell), Рафаель Амарго (Rafael Amargo)...
Усі актори та їх фото:
Каспар Зафер (Casper Zafer), Естер Нубіола (Esther Nubiola), Леонор Вайтінг (Leonor Watling), Інгрід Рубіо (Ingrid Rubio), Джейн Ешер (Jane Asher), Чарлі Кокс (Charlie Cox), Сід Мітчел (Sid Mitchell), Рафаель Амарго (Rafael Amargo), Джей Бенедикт (Jay Benedict), Вікторія Абріль (Victoria Abril), Джанкарло Джанніні (Giancarlo Giannini), Ребекка Кобос (Rebecca Cobos), Валентина Бургуен (Valentina Burgueño), Хуліо Велез (Julio Vélez), Ісмаель Мартінес (Ismael Martínez), Віктор Рівас (Víctor Rivas), Еудженіо Джіменез (Eugenio Jiménez), Раймон Дель Помар (Ramón Del Pomar), Сабріна Прага (Sabrina Praga), Рокко Салата (Rocco Salata), Франческо Джордано (Francesco Giordano), Ф. Паоло Матера (F. Paolo Matera), Джуанджо Мугіка (Juanjo Mugica)


Сюжет:
Візантія, XV століття, турецькі війська взяли Константинополь. В якості мирного договору Великий султан Туреччини Мухаммед II просить руки Карменсини - дочки візантійського імператора. Гордий правитель Візантії не хоче віддавати в руки ворога і дочку, і столицю своєї імперії. Але вибір неминучий. Його кращий полководець Тірант, який згорає від пристрасті до красуні Карменсини, кидає виклик незчисленним полчищам турків. Але хвилює його не результат великої битви, а взяття неприступного серця прекрасної і непорочної дочки імператора.


Бюджет: 14 000 000 євро
Збори у світі: 2 276 084 долари
Назва фільму у інших країнах
A fehér lovag
Угорщина


Kreuzritter 8 - Der weiße Ritter
Німеччина (DVD назва)


The Maidens' Conspiracy
Міжнародна (Англійська назва)


The White Knight
США (DVD назва)


Tirant lo Blanch: The Maiden's Conspiracy
Гонконг (DVD назва) (Англійська назва)


Византийская принцесса
Росія
Media info
General
Unique ID : 241601975650655249867432919013219555036 (0xB5C2D913707AAFC6A43057C9AFC2D6DC)
Complete name : D:\Tirante el Blanco (2006) [ukr.Lumyer(Tonis)_eng_AC3_5.1_sub] 1080p [Hurtom] by urij546724.mkv
Format : Matroska
Format version : Version 2
File size : 8.51 GiB
Duration : 2h 7mn
Overall bit rate : 9 589 Kbps
Movie name : Tirante el Blanco (2006) [ukr.Lumyer(Tonis)_eng_AC3_5.1_sub] 1080p [Hurtom] by urij546724
Encoded date : UTC 2012-08-08 15:51:36
Writing application : mkvmerge v2.9.7 ('Tenderness') built on Jul 1 2009 18:43:35
Writing library : libebml v0.7.7 + libmatroska v0.8.1

Video
ID : 1
Format : AVC
Format/Info : Advanced Video Codec
Format profile : [email protected]
Format settings, CABAC : Yes
Format settings, ReFrames : 5 frames
Codec ID : V_MPEG4/ISO/AVC
Duration : 2h 7mn
Bit rate : 8 306 Kbps
Width : 1 920 pixels
Height : 808 pixels
Display aspect ratio : 2.40:1
Frame rate : 23.976 fps
Color space : YUV
Chroma subsampling : 4:2:0
Bit depth : 8 bits
Scan type : Progressive
Bits/(Pixel*Frame) : 0.223
Stream size : 7.21 GiB (85%)
Title : Tirante el Blanco (2006) [ukr.Lumyer(Tonis)_eng_AC3_5.1_sub] 1080p [Hurtom] by urij546724
Writing library : core 104 r1698 c41b8f0
Encoding settings : cabac=1 / ref=5 / deblock=1:-1:-1 / analyse=0x3:0x113 / me=umh / subme=7 / psy=1 / psy_rd=1.00:0.00 / mixed_ref=1 / me_range=16 / chroma_me=1 / trellis=1 / 8x8dct=1 / cqm=0 / deadzone=21,11 / fast_pskip=1 / chroma_qp_offset=-2 / threads=12 / sliced_threads=0 / nr=0 / decimate=1 / interlaced=0 / constrained_intra=0 / bframes=3 / b_pyramid=2 / b_adapt=2 / b_bias=0 / direct=3 / weightb=1 / open_gop=0 / weightp=2 / keyint=250 / keyint_min=23 / scenecut=40 / intra_refresh=0 / rc_lookahead=40 / rc=2pass / mbtree=1 / bitrate=8306 / ratetol=1.0 / qcomp=0.60 / qpmin=10 / qpmax=51 / qpstep=4 / cplxblur=20.0 / qblur=0.5 / vbv_maxrate=50000 / vbv_bufsize=50000 / ip_ratio=1.40 / aq=1:1.00 / nal_hrd=none
Language : English
Default : Yes
Forced : No

Audio #1
ID : 2
Format : AC-3
Format/Info : Audio Coding 3
Mode extension : CM (complete main)
Format settings, Endianness : Big
Codec ID : A_AC3
Duration : 2h 7mn
Bit rate mode : Constant
Bit rate : 640 Kbps
Channel(s) : 6 channels
Channel positions : Front: L C R, Side: L R, LFE
Sampling rate : 48.0 KHz
Bit depth : 16 bits
Compression mode : Lossy
Stream size : 582 MiB (7%)
Title : Українська доріжка
Language : Ukrainian
Default : Yes
Forced : No

Audio #2
ID : 3
Format : AC-3
Format/Info : Audio Coding 3
Mode extension : CM (complete main)
Format settings, Endianness : Big
Codec ID : A_AC3
Duration : 2h 7mn
Bit rate mode : Constant
Bit rate : 640 Kbps
Channel(s) : 6 channels
Channel positions : Front: L C R, Side: L R, LFE
Sampling rate : 48.0 KHz
Bit depth : 16 bits
Compression mode : Lossy
Stream size : 582 MiB (7%)
Title : Англійська доріжка
Language : English
Default : No
Forced : No

Text #1
ID : 4
Format : UTF-8
Codec ID : S_TEXT/UTF8
Codec ID/Info : UTF-8 Plain Text
Title : Українські субтитри
Language : Ukrainian
Default : Yes
Forced : No

Text #2
ID : 5
Format : UTF-8
Codec ID : S_TEXT/UTF8
Codec ID/Info : UTF-8 Plain Text
Title : Англійські субтитри
Language : English
Default : No
Forced : No
Тривалість: 02:07:05
Якість: 1080p
Відео:
кодек:
розмір кадру: 1920 х 808
бітрейт: ~ 8306 кб/с
частота кадрів: 23.976 к/с (fps)

Аудіо #1:
мова: українська
переклад: двоголосий закадровий
кодек: 5.1
бітрейт: 640 кб/с
озвучено: студією Люм'єр
запис звуку з каналу: і
примітка: озвучка відсутня на відрізку 1:25:51-1:29:42

Аудіо #2:
мова: англійська
переклад: оригінал
кодек: 5.1
бітрейт: 640 кб/с

Субтитри #1:
мова: українська
тип: програмні (м'які)
формат: *.srt
переклад: з російської urij546724

Субтитри #2:
мова: англійська
тип: програмні (м'які)
формат: *.srt

Скріншоти:





Трейлер:
Семпл
Джерело 1_________Джерело 2_________Джерело 3_________Джерело 4_________Джерело 5_________Джерело 6_________Джерело 7
У випадку, якщо з усіх джерел семпл видалять, прохання повідомити мені у ПРИВАТ


Подяка:

1. Пану urij546724 за запис звуку з ТБ.
2. Пану somnambula за українізацію постера.


Реліз створено: &

Особиста оцінка: 7 - фільм більше побудований на еротичній складовій, але все одно сюжет цікавий.

Реліз не зберігатиму, видалю після появи кількох сідів.


 Трекер:    Зареєстрований   

Завантажити / скачати фільм українською



відео для новачків



 Зареєстрований:   2012-08-08 19:53
 Розмір:   8.51 GB 
 Оцінка фільму:   5.5/10 (Голосів: 8)
 Прохання залишати коментарі і не тікати з роздачі.
   
Інші релізи
М_а_м_а_Й 
VIP


З нами з: 12.08.11
Востаннє: 07.12.16
Повідомлень: 375

2012-08-08 22:03  
Зможете викласти меншого розміру?
urij546724 
Відео Гуртом - фільмокрай
Відео Гуртом - фільмокрай


З нами з: 16.03.10
Востаннє: 08.12.16
Повідомлень: 5222

2012-08-08 22:13  
М_а_м_а_Й написано:
Зможете викласти меншого розміру?

Дивися анонси. Буде реліз на 2.9Гб.

VictoriaRegina 
Свій


З нами з: 25.02.10
Востаннє: 05.08.15
Повідомлень: 121

2012-08-09 08:14  
Трейлер схожий на середньовічний серіал.
urij546724 
Відео Гуртом - фільмокрай
Відео Гуртом - фільмокрай


З нами з: 16.03.10
Востаннє: 08.12.16
Повідомлень: 5222

2012-08-09 08:20  
VictoriaRegina написано:
Трейлер схожий на середньовічний серіал.

Ну бо впринципі так і є.
urij546724 написано:
Візантія, XV століття, турецькі війська взяли Константинополь....


Додано через 1 хвилину 29 секунд:

На перший погляд фільм більше цікавий еротичними сценами, ніж художньою цінністю.

На днях викладу більш цікавий міні-серіал про подібні події.

М_а_м_а_Й 
VIP


З нами з: 12.08.11
Востаннє: 07.12.16
Повідомлень: 375

2012-08-09 20:56  
urij546724 Дякую.
Ваш часовий пояс: GMT + 2 Години

Нова тема   Відповісти