Завантажити та скачати торренти українською


Апокаліпсис / Apocalypto (2006) 720p 2xUkr/Myn | Sub Ukr/Eng

Нові коментарі

Нова тема   Відповісти
Автор Повідомлення
DеLight 
Відео Гуртом - фільмокрай
Відео Гуртом - фільмокрай


З нами з: 24.08.11
Востаннє: 17.11.16
Повідомлень: 664

2012-08-06 20:41  
Апокаліпсис / Apocalypto (2006) 720p 2xUkr/Myn | Sub Ukr/Eng

Апокаліпсис / Apocalypto (2006) 720p 2xUkr/Myn | Sub Ukr/Eng


Жанр: бойовик, драма, пригоди
Країна: США



Кіностудія / кінокомпанія: Icon Entertainment International, Icon Productions, Touchstone Pictures
Режисер: Мел Гібсон / Mel Gibson
Актори: Руді Янблад / Rudy Youngblood, Далія Эрнандез / Dalia Hernández, Джонатан Брюєр / Jonathan Brewer, Морріс Бердйеллоухед / Morris Birdyellowhead, Карлос Еміліо Баез / Carlos Emilio Báez, Амілкар Рамірез / Amilcar Ramírez, Ізраєл Контрерас / Israel Contreras, Ізраєл Ріос / Israel Ríos, Марія Ізабель Діаз / María Isabel Díaz, Еспірідіон Акоста Кеш / Espiridion Acosta Cache, Майра Сербуло / Mayra Serbulo, Язуа Ларіос / Iazua Larios, Lorena Heranandez / Лорена Ернандез, Ітандеуї Гутійерез / Itandehui Gutierrez, Саюрі Гутійерез / Sayuri Gutierrez


Воїн на прізвисько Лапа Ягуара разом з іншими мешканцями свого поселення потрапляє у полон до работоргівців. Усі полонені приречені на смерть, окрім самого Лапи Ягуара. Адже йому є для чого жити: перед полоном він встиг сховати в логовині вагітну дружину та малого сина, яким без сторонньої волі на світ Божий не вибратися... Знятий мертвою мовою майя, фільм Мела Гібсона - епічна фреска могутньої емоціональної напруги, безапеляційне висловлювання про насильство та дотепна політична алегорія водночас. Зацькований цього року за неполіткоректність, Гібсон ризикує бути вдруге після "Страстей Христових" зацькованим ще й за художній радикалізм.



Тривалість: 02:18:21
Якість: 720p

Відео:
кодек:
розмір кадру: 1280 x 692
бітрейт: 3 466 кб/с

Аудіо #1:
мова: українська
переклад: багатоголосий закадровий
кодек: 5.1
бітрейт: 448 кб/с

Джерело озвучення:


Аудіо #2:
мова: українська
переклад: одноголосий закадровий
кодек: 2.0
бітрейт: 192 кб/с

Джерело озвучення:
Михайло Чорний

Аудіо #3:
мова: юкатекська (майянська)
переклад: оригінал
кодек: 5.1
бітрейт: 384 кб/с

Субтитри #1:
мова: українська
тип: програмні (м'які)
формат: *.srt

Субтитри #2:
мова: англійська
тип: програмні (м'які)
формат: *.srt



->переглянути<-

General
Unique ID : 243150079488955719609297551580009824965 (0xB6ED007CF6A7C332AB367B9AF81B82C5)
Complete name : D:\Torrents\Apocalypto (2006) 720p [2xUkr, Myn, sub Ukr, Eng] [Hurtom].mkv
Format : Matroska
File size : 4.34 GiB
Duration : 2h 18mn
Overall bit rate : 4 492 Kbps
Movie name : Apocalypto (2006) 720p [2xUkr, Myn, sub Ukr, Eng] [Hurtom & NNM-Club] by Delight
Encoded date : UTC 2012-08-06 20:44:52
Writing application : mkvmerge v5.7.0 ('The Whirlwind') built on Jul 8 2012 20:08:51
Writing library : libebml v1.2.3 + libmatroska v1.3.0

Video
ID : 1
Format : AVC
Format/Info : Advanced Video Codec
Format profile : [email protected]
Format settings, CABAC : Yes
Format settings, ReFrames : 3 frames
Format settings, GOP : N=1
Codec ID : V_MPEG4/ISO/AVC
Duration : 2h 18mn
Bit rate : 3 466 Kbps
Width : 1 280 pixels
Height : 692 pixels
Display aspect ratio : 1.850
Frame rate : 23.976 fps
Color space : YUV
Chroma subsampling : 4:2:0
Bit depth : 8 bits
Scan type : Progressive
Bits/(Pixel*Frame) : 0.163
Stream size : 3.27 GiB (75%)
Title : Apocalypto (2006) 720p
Writing library : core 70 r1206M 9a54c48
Encoding settings : cabac=1 / ref=3 / deblock=1:0:0 / analyse=0x3:0x113 / me=umh / subme=9 / psy=1 / psy_rd=1.0:0.0 / mixed_ref=1 / me_range=16 / chroma_me=1 / trellis=2 / 8x8dct=1 / cqm=0 / deadzone=21,11 / chroma_qp_offset=-2 / threads=3 / nr=0 / decimate=1 / mbaff=0 / bframes=3 / b_pyramid=0 / b_adapt=2 / b_bias=0 / direct=3 / wpredb=1 / keyint=250 / keyint_min=24 / scenecut=40 / rc_lookahead=40 / rc=2pass / mbtree=1 / bitrate=3466 / ratetol=1.0 / qcomp=0.60 / qpmin=10 / qpmax=51 / qpstep=4 / cplxblur=20.0 / qblur=0.5 / ip_ratio=1.40 / aq=1:1.00 / zones
Language : myn

Audio #1
ID : 2
Format : AC-3
Format/Info : Audio Coding 3
Mode extension : CM (complete main)
Codec ID : A_AC3
Duration : 2h 18mn
Bit rate mode : Constant
Bit rate : 448 Kbps
Channel(s) : 6 channels
Channel positions : Front: L C R, Side: L R, LFE
Sampling rate : 48.0 KHz
Bit depth : 16 bits
Compression mode : Lossy
Delay relative to video : -42ms
Stream size : 443 MiB (10%)
Title : 5.1; 448 kbps; багатоголосий закадровий {Україна}
Language : Ukrainian

Audio #2
ID : 3
Format : AC-3
Format/Info : Audio Coding 3
Mode extension : CM (complete main)
Codec ID : A_AC3
Duration : 2h 18mn
Bit rate mode : Constant
Bit rate : 192 Kbps
Channel(s) : 2 channels
Channel positions : Front: L R
Sampling rate : 48.0 KHz
Bit depth : 16 bits
Compression mode : Lossy
Delay relative to video : -42ms
Stream size : 190 MiB (4%)
Title : 2.0; 192 kbps; одноголосий закадровий (любительський: Михайло Чорний)
Language : Ukrainian

Audio #3
ID : 4
Format : AC-3
Format/Info : Audio Coding 3
Mode extension : CM (complete main)
Codec ID : A_AC3
Duration : 2h 18mn
Bit rate mode : Constant
Bit rate : 384 Kbps
Channel(s) : 6 channels
Channel positions : Front: L C R, Side: L R, LFE
Sampling rate : 48.0 KHz
Bit depth : 16 bits
Compression mode : Lossy
Delay relative to video : -42ms
Stream size : 380 MiB (9%)
Title : 5.1; 384 kbps; original
Language : myn

Text #1
ID : 5
Format : UTF-8
Codec ID : S_TEXT/UTF8
Codec ID/Info : UTF-8 Plain Text
Language : Ukrainian

Text #2
ID : 6
Format : UTF-8
Codec ID : S_TEXT/UTF8
Codec ID/Info : UTF-8 Plain Text
Language : English




->переглянути<-


















Джерело: &
Подяка Breniak за українські доріжки та Lan за виготовлення шестиканальної доріжки
Особиста оцінка: 10


 Трекер:    Зареєстрований   

Завантажити / скачати фільм українською



відео для новачків



 Зареєстрований:   2012-08-06 22:58
 Розмір:   4.34 GB 
 Оцінка фільму:   9.9/10 (Голосів: 27)
   
Інші релізи
braveboy 
Відео Гуртом - команда HD
Відео Гуртом - команда HD


З нами з: 15.06.10
Востаннє: 29.10.16
Повідомлень: 958

2012-08-06 21:09  
Dоnу написано:
Muxing mode : Header stripping

http://toloka.to/t31095

praysu 
Забанено
Забанено


З нами з: 22.05.08
Востаннє: 13.11.13
Повідомлень: 119

2012-08-06 21:52  
оформив реліз дуже гарно.
Напевно часу багато забрало

DеLight 
Відео Гуртом - фільмокрай
Відео Гуртом - фільмокрай


З нами з: 24.08.11
Востаннє: 17.11.16
Повідомлень: 664

2012-08-06 23:05  
braveboy
Що ж будем виправляти... вибачайте за незручності.

Додано через 25 хвилин 26 секунд:

Торент оновлено! Перезавантажте! Ще раз вибачаюсь за незручності

DiGen 
Модератор HD та координатор Команди HD
Модератор HD та координатор Команди HD


З нами з: 12.11.09
Востаннє: 24.06.13
Повідомлень: 1452

2012-08-06 23:24  
Dоnу
Оформлення - 10 з 10
Опис повний - -//-
Решта - -//-

Єдине, що хочу вказати:
1) "світлини", а не "скріншоти"
2) на майбутнє: ReFrames бажано від 5, а краще 8-10; Writing library: core від 106, а краще поч. з 120; bframes=7 або вище;
3) саби теж бажано підписувати по аналогії зі звуковими, але це лише моя особиста думка.

DеLight 
Відео Гуртом - фільмокрай
Відео Гуртом - фільмокрай


З нами з: 24.08.11
Востаннє: 17.11.16
Повідомлень: 664

2012-08-06 23:46  
DiGen
Дякую, буду мати на увазі.

braveboy 
Відео Гуртом - команда HD
Відео Гуртом - команда HD


З нами з: 15.06.10
Востаннє: 29.10.16
Повідомлень: 958

2012-08-07 01:30  
DiGen написано:
2) на майбутнє: ReFrames бажано від 5, а краще 8-10; Writing library: core від 106, а краще поч. з 120; bframes=7 або вище;

ReFrames від 4 до 9
Bframes не більше 8

Ваш часовий пояс: GMT + 2 Години

Нова тема   Відповісти