Завантажити та скачати торренти українською


Готика / Gothika (2003) 720р 2xUkr/Eng | Sub Eng

Нові коментарі

Нова тема   Відповісти
Автор Повідомлення
11FrYkT 
Модератор відео


З нами з: 20.02.11
Востаннє: 06.12.16
Повідомлень: 3113

2012-08-06 20:17  
Готика / Gothika (2003) 720р 2xUkr/Eng | Sub Eng

Готика / Gothika (2003) 720р 2xUkr/Eng | Sub Eng

«Мертві не завжди йдуть...»



Жанр: містика, триллер, детектив
Країна: США



Кіностудія / кінокомпанія: Columbia Pictures Corporation
Режисер: Матьє Кассовіц (Mathieu Kassovitz)
Актори: Голлі Беррі (Halle Berry), Пенелопа Крус (Penélope Cruz), Роберт Дауні-мол. (Robert Downey Jr.), Чарлз Даттон (Charles S. Dutton) та інші.

Сюжет:
Фільм розповідає про жінку-психіатра, яка одного дня стає пацієнткою лікарні для неосудних злочинців, де вона раніше працювала.
До того ж, її звинувачують у скоєнні жорстокого вбивства, якого вона зовсім не пам‘ятає. Намагаючись зрозуміти, що відбувається, вона стає свідком незбагненних містичних подій...


Тривалість: 01:38:07
Якість: 720p
Відео:
кодек:
розмір кадру: 1280x692
бітрейт: 6483 кб/с

Аудіо # 1:
мова: українська
переклад: двоголосий закадровий
кодек: 2.0
бітрейт: 256 кб/с

Аудіо # 2:
мова: українська
переклад: багатоголосий закадровий | Так треба продакшн на замовлення |
кодек: 2.0
бітрейт: 192 кб/с

Аудіо # 3:
мова: англійська
переклад: оригінал
кодек: 5.1
бітрейт: 640 кб/с

Аудіо # 4:
мова: англійська
переклад: оригінал
кодек: 2.0
бітрейт: 192 кб/с |Commentary|

Субтитри:
мова: англійська
тип: програмні (м'які)
формат: *.srt
MediaInfo
Код:
Gothika (2003) 720р.mkv
   General
      UniqueID : 181855029682083498516618994824428993632 (0x88D001355812DBA3B6DAF5185FB53C60)
      Complete name : Gothika (2003) 720р.mkv
      Format : Matroska
      File size : 5.43 GiB
      Duration : 1h 38mn
      Overall bit rate : 7 920 Kbps
      Encoded date : UTC 2012-08-06 20:02:20
      Writing application : mkvmerge v4.9.1 ('Ich will') зібрано Jul 11 2011 23:53:15
      Writing library : libebml v1.2.1 + libmatroska v1.1.1
   Video #1
      ID : 1
      Format : AVC
      Format/Info : Advanced Video Codec
      Format profile : [email protected]
      Format settings, CABAC : Yes
      Format settings, ReFrames : 9 frames
      Codec ID : V_MPEG4/ISO/AVC
      Duration : 1h 38mn
      Bit rate : 6 483 Kbps
      Width : 1 280 pixels
      Height : 692 pixels
      Display aspect ratio : 1.850
      Frame rate : 23.976 fps
      Color space : YUV
      Chroma subsampling : 4:2:0
      Bit depth : 8 bits
      Scan type : Progressive
      Bits/(Pixel*Frame) : 0.305
      Stream size : 4.44 GiB (82%)
      Writing library : core 125 r2200 999b753
      Encoding settings : cabac=1 / ref=9 / deblock=1:-1:-1 / analyse=0x3:0x133 / me=tesa / subme=11 / psy=1 / psy_rd=1.00:0.00 / mixed_ref=1 / me_range=32 / chroma_me=1 / trellis=2 / 8x8dct=1 / cqm=0 / deadzone=21,11 / fast_pskip=1 / chroma_qp_offset=-2 / threads=12 / lookahead_threads=2 / sliced_threads=0 / nr=0 / decimate=1 / interlaced=0 / bluray_compat=0 / constrained_intra=0 / bframes=10 / b_pyramid=2 / b_adapt=2 / b_bias=0 / direct=3 / weightb=1 / open_gop=0 / weightp=2 / keyint=240 / keyint_min=24 / scenecut=40 / intra_refresh=0 / rc=crf / mbtree=0 / crf=17.0 / qcomp=0.60 / qpmin=0 / qpmax=69 / qpstep=4 / ip_ratio=1.40 / pb_ratio=1.30 / aq=1:0.80
      Language : English
   Audio #2
      ID : 2
      Format : AC-3
      Format/Info : Audio Coding 3
      Mode extension : CM (complete main)
      Codec ID : A_AC3
      Duration : 1h 38mn
      Bit rate mode : Constant
      Bit rate : 256 Kbps
      Channel(s) : 2 channels
      Channel positions : Front: L R
      Sampling rate : 48.0 KHz
      Bit depth : 16 bits
      Compression mode : Lossy
      Stream size : 180 MiB (3%)
      Title : 2.0 @ 256 kbps -Двоголосий закадровий, 1+1
      Language : Ukrainian
   Audio #3
      ID : 3
      Format : AC-3
      Format/Info : Audio Coding 3
      Mode extension : CM (complete main)
      Codec ID : A_AC3
      Duration : 1h 38mn
      Bit rate mode : Constant
      Bit rate : 192 Kbps
      Channel(s) : 2 channels
      Channel positions : Front: L R
      Sampling rate : 48.0 KHz
      Bit depth : 16 bits
      Compression mode : Lossy
      Stream size : 135 MiB (2%)
      Title : 2.0 @ 192 kbps - Багатоголосий закадровий,"ТакТребаПродакшн" на замовлення телекомпанії - IHTEP
      Language : Ukrainian
   Audio #4
      ID : 4
      Format : AC-3
      Format/Info : Audio Coding 3
      Mode extension : CM (complete main)
      Codec ID : A_AC3
      Duration : 1h 38mn
      Bit rate mode : Constant
      Bit rate : 640 Kbps
      Channel(s) : 6 channels
      Channel positions : Front: L C R, Side: L R, LFE
      Sampling rate : 48.0 KHz
      Bit depth : 16 bits
      Compression mode : Lossy
      Stream size : 449 MiB (8%)
      Title : 5.1 @ 640 kbps
      Language : English
   Audio #5
      ID : 5
      Format : AC-3
      Format/Info : Audio Coding 3
      Format profile : Dolby Digital
      Mode extension : CM (complete main)
      Codec ID : A_AC3
      Duration : 1h 38mn
      Bit rate mode : Constant
      Bit rate : 192 Kbps
      Channel(s) : 2 channels
      Channel positions : Front: L R
      Sampling rate : 48.0 KHz
      Bit depth : 16 bits
      Compression mode : Lossy
      Stream size : 135 MiB (2%)
      Title : 2.0 @ 192 kbps - Commentary
      Language : English
   Text #6
      ID : 6
      Format : UTF-8
      Codec ID : S_TEXT/UTF8
      Codec ID/Info : UTF-8 Plain Text
      Language : English
Світлини






Джерело: &
Особиста оцінка: 0 - не дивився


Срібний реліз (на рейтинг впливає 50% завантаженого)
 Трекер:    Зареєстрований   

Завантажити / скачати фільм українською



відео для новачків



 Зареєстрований:   2012-08-06 22:12
 Розмір:   5.43 GB 
 Оцінка фільму:   9.3/10 (Голосів: 8)
   
Інші релізи
   Готика / Gothika (2003) 2хUkr/Eng robotron005  4 / 0   1.73 GB   2012-01-03 19:26 
11FrYkT 
Модератор відео


З нами з: 20.02.11
Востаннє: 06.12.16
Повідомлень: 3113

2012-08-06 22:33  
Тим хто вантажив приношу свої вибачення, довелось перезалити. Завантажте новий торент файл.
Дякую!

Sergio_KeA 
Новенький


З нами з: 29.01.16
Востаннє: 15.05.16
Повідомлень: 3

2016-05-15 21:00  
файл чомусь неможливо завантажити.
Ваш часовий пояс: GMT + 2 Години

Нова тема   Відповісти