Завантажити та скачати торренти українською


Воронована сталь / Blue Steel (1989) 720p Ukr/Eng

Нові коментарі

Нова тема   Відповісти
Автор Повідомлення
11FrYkT 
Модератор відео


З нами з: 20.02.11
Востаннє: 04.12.16
Повідомлень: 3079

2012-08-03 09:56  
Воронована сталь / Blue Steel (1989) 720p Ukr/Eng

Воронована сталь / Blue Steel (1989) 720p Ukr/Eng


Жанр: бойовик
Країна: США



Кіностудія / кінокомпанія: Metropolitan Films & Vestron Pictures
Режисер: Кетрін Бігелоу
Актори: Джеймі Лі Кертіс, Рон Сільвер, Кленсі Браун, Елізабет Пенья, Луїза Флетчер, Філіп Боско, Кевін Данн, Річард Дженкінс, Маркус Фленнаган, Мері Мара

Сюжет:
Офіцер поліції Міган тільки що закінчила спеціальну поліцейську школу. І в ході першого ж чергування револьвер грабіжника, застреленого нею "за всіма правилами", випадково потрапляє в руки фінансового брокера Юджина.

У зв'язку зі зникненням найважливішого доказу розпочинається розслідування "провини" Міган, а в місті починається серія вбивств, пов'язаних з її іменем. Одержимість зброєю Юджина, "бездоганного" чоловіка з Уолл-Стріт, стає смертельною пасткою для Міган, яка зав'язує з ним романтичні стосунки. Тому що саме він і виявляється маніяком-убивцею.


Тривалість: 01:41:53
Якість: 720p

Відео:
кодек:
розмір кадру: 1280 x 688
бітрейт: 4638 кб/с

Аудіо # 1:
мова: українська
переклад: багатоголосий закадровий
кодек: 2.0
бітрейт: 192 кб/с

Аудіо # 2:
мова: англійська
переклад: оригінал
кодек: 5.1
бітрейт: 1536 кб/с
MediaInfo
Код:
Blue Steel (1989) 720p.mkv
   General
      UniqueID : 212900280136062458770950183357372485519 (0xA02B1A3B5BEB55B6BB07E99EB2B4CF8F)
      Complete name : Blue Steel (1989) 720p.mkv
      Format : Matroska
      File size : 4.51 GiB
      Duration : 1h 41mn
      Overall bit rate : 6 339 Kbps
      Encoded date : UTC 2012-08-02 20:46:00
      Writing application : mkvmerge v4.9.1 ('Ich will') зібрано Jul 11 2011 23:53:15
      Writing library : libebml v1.2.1 + libmatroska v1.1.1
   Video #1
      ID : 1
      Format : AVC
      Format/Info : Advanced Video Codec
      Format profile : [email protected]
      Format settings, CABAC : Yes
      Format settings, ReFrames : 5 frames
      Codec ID : V_MPEG4/ISO/AVC
      Duration : 1h 41mn
      Bit rate : 4 638 Kbps
      Width : 1 280 pixels
      Height : 688 pixels
      Display aspect ratio : 1.860
      Frame rate : 23.976 fps
      Color space : YUV
      Chroma subsampling : 4:2:0
      Bit depth : 8 bits
      Scan type : Progressive
      Bits/(Pixel*Frame) : 0.220
      Stream size : 3.21 GiB (71%)
      Writing library : core 114 r1924 08d04a4
      Encoding settings : cabac=1 / ref=5 / deblock=1:0:0 / analyse=0x3:0x113 / me=umh / subme=7 / psy=1 / psy_rd=1.00:0.00 / mixed_ref=1 / me_range=16 / chroma_me=1 / trellis=1 / 8x8dct=1 / cqm=0 / deadzone=21,11 / fast_pskip=0 / chroma_qp_offset=-2 / threads=12 / sliced_threads=0 / nr=0 / decimate=1 / interlaced=0 / constrained_intra=0 / bframes=3 / b_pyramid=2 / b_adapt=1 / b_bias=0 / direct=1 / weightb=1 / open_gop=0 / weightp=2 / keyint=250 / keyint_min=23 / scenecut=40 / intra_refresh=0 / rc_lookahead=40 / rc=2pass / mbtree=1 / bitrate=4638 / ratetol=1.0 / qcomp=0.60 / qpmin=0 / qpmax=69 / qpstep=4 / cplxblur=20.0 / qblur=0.5 / ip_ratio=1.40 / aq=1:1.00
      Language : English
   Audio #2
      ID : 2
      Format : AC-3
      Format/Info : Audio Coding 3
      Mode extension : CM (complete main)
      Codec ID : A_AC3
      Duration : 1h 41mn
      Bit rate mode : Constant
      Bit rate : 192 Kbps
      Channel(s) : 2 channels
      Channel positions : Front: L R
      Sampling rate : 48.0 KHz
      Bit depth : 16 bits
      Compression mode : Lossy
      Stream size : 140 MiB (3%)
      Language : Ukrainian
   Audio #3
      ID : 3
      Format :
      Format/Info : Digital Theater Systems
      Codec ID : A_DTS
      Duration : 1h 41mn
      Bit rate mode : Constant
      Bit rate : 1 510 Kbps
      Channel(s) : 6 channels
      Channel positions : Front: L C R, Side: L R, LFE
      Sampling rate : 48.0 KHz
      Bit depth : 24 bits
      Compression mode : Lossy
      Video delay : 11ms
      Stream size : 1.07 GiB (24%)
      Language : English
Світлини





Джерело: &
Особиста оцінка: 0 - не дивився
За надану доріжку подяка пану НТН


Срібний реліз (на рейтинг впливає 50% завантаженого)
 Трекер:    Зареєстрований   

Завантажити / скачати фільм українською



відео для новачків



 Зареєстрований:   2012-08-03 09:56
 Розмір:   4.51 GB 
 Оцінка фільму:   9.5/10 (Голосів: 4)
   
Інші релізи
   Воронована сталь / Blue Steel (1989) Ukr/Eng НТН  2 / 0   1.45 GB   2012-08-01 15:03 
Ваш часовий пояс: GMT + 2 Години

Нова тема   Відповісти