Завантажити та скачати торренти українською


Шкіра, в якій я живу / La piel que habito / The Skin I Live In (2011) 720р Ukr/Esp | Sub Esp/Eng

Нові коментарі

Нова тема   Відповісти
Автор Повідомлення
11FrYkT 
Модератор відео


З нами з: 20.02.11
Востаннє: 09.12.16
Повідомлень: 3132

2012-08-02 12:31  
Шкіра, в якій я живу / La piel que habito / The Skin I Live In (2011) 720р Ukr/Esp | Sub Esp/Eng

Шкіра, в якій я живу / La piel que habito / The Skin I Live In (2011) 720р Ukr/Esp | Sub Esp/Eng


Жанр: драма, трилер
Країна: Іспанія



Кіностудія / кінокомпанія: Blue Haze Entertainment, Canal+ Espana, El Deseo D.A. S.L.U., FilmNation Entertainment, Instituto de Credito Oficial (ICO), Instituto de la Cinematografia y de las Artes Audiovisuales (ICAA), Television Espanola (TVE)
Режисер: Педро Альмодовар / Pedro Almodovar
Актори: Антоніо Бандерас / Antonio Banderas, Єлена Анайа / Elena Anaya, Маріса Паредес / Marisa Paredes, Джен Корнет / Jan Cornet, Роберто Аламо / Roberto Alamo, Едуард Фернандес / Eduard Fernandez, Жозе Луїс Ґомес / Jose Luis Gomez, Бланка Суарез / Blanca Suarez, Сюзі Санчез / Susi Sanchez, Барбара Ленні / Barbara Lennie, Фернандо Кайо / Fernando Cayo, Чема Руіз / Chema Ruiz, Буіка / Buika, Ана Мена / Ana Mena, Тереза Манреза / Teresa Manresa

Сюжет:
Геній пластичної хірургії лікар Ледгард, що шляхом зухвалих генетичних експериментів створив штучну людську шкіру, веде полювання на покидька, який багато років тому зґвалтував його дочку. Жорстокість його помсти не знає межі...


Тривалість: 02:00:10
Якість: 720р
Відео:
кодек:
розмір кадру: 1280 x 692
бітрейт: 7600 кб/с

Аудіо # 1:
мова: українська
переклад: професійний дубльований
кодек: 5.1
бітрейт: 448 кб/с

Аудіо # 2:
мова: іспанська
переклад: оригінал
кодек: 5.1
бітрейт: 1536 кб/с

Субтитри:
мова: англійська
тип: програмні (м'які)
формат: *.srt

Субтитри:
мова: іспанська
тип: програмні (м'які)
формат: *.srt
MediaInfo
Код:
The Skin I Live In (2011) 720р.mkv
   General
      UniqueID : 175664684380047117271742967873384396260 (0x8427C99EF76DA5A2AB74E6C10D96B5E4)
      Complete name : The Skin I Live In (2011) 720р.mkv
      Format : Matroska
      File size : 8.02 GiB
      Duration : 2h 0mn
      Overall bit rate : 9 559 Kbps
      Encoded date : UTC 2012-08-02 10:06:23
      Writing application : mkvmerge v4.9.1 ('Ich will') зібрано Jul 11 2011 23:53:15
      Writing library : libebml v1.2.1 + libmatroska v1.1.1
   Video #1
      ID : 1
      Format : AVC
      Format/Info : Advanced Video Codec
      Format profile : [email protected]
      Format settings, CABAC : Yes
      Format settings, ReFrames : 8 frames
      Format settings, GOP : M=1, N=13
      Codec ID : V_MPEG4/ISO/AVC
      Duration : 2h 0mn
      Bit rate : 7 600 Kbps
      Width : 1 280 pixels
      Height : 692 pixels
      Display aspect ratio : 1.850
      Frame rate : 24.000 fps
      Color space : YUV
      Chroma subsampling : 4:2:0
      Bit depth : 8 bits
      Scan type : Progressive
      Bits/(Pixel*Frame) : 0.358
      Stream size : 6.22 GiB (78%)
      Writing library : core 116 r2074 2641b9e
      Encoding settings : cabac=1 / ref=8 / deblock=1:-2:-2 / analyse=0x3:0x113 / me=umh / subme=11 / psy=1 / psy_rd=1.00:0.00 / mixed_ref=1 / me_range=32 / chroma_me=1 / trellis=2 / 8x8dct=1 / cqm=0 / deadzone=21,11 / fast_pskip=0 / chroma_qp_offset=-2 / threads=12 / sliced_threads=0 / nr=0 / decimate=1 / interlaced=0 / bluray_compat=0 / constrained_intra=0 / bframes=8 / b_pyramid=2 / b_adapt=2 / b_bias=0 / direct=3 / weightb=1 / open_gop=0 / weightp=2 / keyint=250 / keyint_min=24 / scenecut=40 / intra_refresh=0 / rc_lookahead=60 / rc=2pass / mbtree=1 / bitrate=7600 / ratetol=1.0 / qcomp=0.70 / qpmin=0 / qpmax=69 / qpstep=4 / cplxblur=20.0 / qblur=0.5 / vbv_maxrate=50000 / vbv_bufsize=50000 / nal_hrd=none / ip_ratio=1.40 / aq=1:1.00
   Audio #2
      ID : 2
      Format : AC-3
      Format/Info : Audio Coding 3
      Mode extension : CM (complete main)
      Codec ID : A_AC3
      Duration : 2h 0mn
      Bit rate mode : Constant
      Bit rate : 448 Kbps
      Channel(s) : 6 channels
      Channel positions : Front: L C R, Side: L R, LFE
      Sampling rate : 48.0 KHz
      Bit depth : 16 bits
      Compression mode : Lossy
      Stream size : 385 MiB (5%)
      Title : @ 5.1 448 kb/s
      Language : Ukrainian
   Audio #3
      ID : 3
      Format :
      Format/Info : Digital Theater Systems
      Codec ID : A_DTS
      Duration : 2h 0mn
      Bit rate mode : Constant
      Bit rate : 1 510 Kbps
      Channel(s) : 6 channels
      Channel positions : Front: L C R, Side: L R, LFE
      Sampling rate : 48.0 KHz
      Bit depth : 16 bits
      Compression mode : Lossy
      Stream size : 1.27 GiB (16%)
      Title : 5.1 @ 1536 kb/s
      Language : Spanish
   Text #4
      ID : 4
      Format : UTF-8
      Codec ID : S_TEXT/UTF8
      Codec ID/Info : UTF-8 Plain Text
      Language : English
   Text #5
      ID : 5
      Format : UTF-8
      Codec ID : S_TEXT/UTF8
      Codec ID/Info : UTF-8 Plain Text
      Language : Spanish
Світлини










Джерело: &
Особиста оцінка: 8 - мені сподобалося
Подяка пану slavik_v_z за наданий сирий звук
Подяка пану karvai0 за синхронізацію звуку


 Трекер:    Зареєстрований   

Завантажити / скачати фільм українською



відео для новачків



 Зареєстрований:   2012-08-02 12:31
 Розмір:   8.02 GB 
 Оцінка фільму:   9.3/10 (Голосів: 15)
   
The_Marlboro 
Відео Гуртом - субтитрування
Відео Гуртом - субтитрування


З нами з: 23.05.10
Востаннє: 08.12.16
Повідомлень: 2854

2012-08-02 13:01  
Скромнішого ріпу не буде?
taras1994 
Почесний оцифрувальник літератури


З нами з: 23.03.12
Востаннє: 30.11.16
Повідомлень: 5096

2012-08-02 13:02  
Аудіо # 2:
мова: італійська
Sad (2)

11FrYkT 
Модератор відео


З нами з: 20.02.11
Востаннє: 09.12.16
Повідомлень: 3132

2012-08-02 13:08  
TheMarlboro , можливо хтось зробить, я пока що не буду. В планах ще дещо викласти, а місця на диску все менше і менше

taras1994 , в списку не було іспанської, а я забув виправити

elf2002 
Свій


З нами з: 18.10.10
Востаннє: 11.05.15
Повідомлень: 139

2012-08-06 20:14  
Будь-ласка, зробіть хоча б 1 гіг розмір. Кажуть, класне кіно, але вісім гіг викачувати це занадто.
11FrYkT 
Модератор відео


З нами з: 20.02.11
Востаннє: 09.12.16
Повідомлень: 3132

2012-08-06 20:17  
elf2002 , на трекері є на 2 Гб
elf2002 
Свій


З нами з: 18.10.10
Востаннє: 11.05.15
Повідомлень: 139

2012-08-06 20:19  
Ну, 2 ще туди-сюди.
Пошукаю.
Спасибі за підказку.

11FrYkT 
Модератор відео


З нами з: 20.02.11
Востаннє: 09.12.16
Повідомлень: 3132

2012-08-06 20:21  
heavymetallrock 
Новенький


З нами з: 30.06.12
Востаннє: 27.11.16
Повідомлень: 12

2012-08-16 09:10  
Авторе, а чому ріп такий не якісний??? Зображення смикається (йде стрибками), доволі часто сиплються пікселі. Спочатку думав, що комп буксує, але запустивши фільм 1080p вагою 16 гіг, упевнився, що з залізякою все гаразд.
А часом немає нормального ріпу?? Бо щось не дуже хочеться дивитися 720 х 384(((

11FrYkT 
Модератор відео


З нами з: 20.02.11
Востаннє: 09.12.16
Повідомлень: 3132

2012-08-16 16:16  
heavymetallrock , фільм я дивився і нічого такого не замінив, картинка гарна тай машина нормальна, так що не знаю, 38 раз скачано і ніхто не жалівся
heavymetallrock 
Новенький


З нами з: 30.06.12
Востаннє: 27.11.16
Повідомлень: 12

2012-08-16 17:44  
Хіба що в мене якогось кодеку не вистачає?? Якщо можете - порадьте нормальний пак, бо це не перший випадок, коли відео смикається, а я докучаю своїм незадоволеням щодо якості))) До речі, вибачаюся за наЄзд))
11FrYkT 
Модератор відео


З нами з: 20.02.11
Востаннє: 09.12.16
Повідомлень: 3132

2012-08-16 18:14  
heavymetallrock , ці не погані K-Lite Codec Pack, можливо оновіть драйвер на відео
waldi-hurtom 
VIP


З нами з: 07.10.12
Востаннє: 08.12.16
Повідомлень: 613

2013-07-12 20:45  
Як на мене, не найкраща стрічка Альмодовара. Занадто заплутано і в цій плутанині ідея фільму десь загубилась. 7/10 Дякую за реліз.
Ваш часовий пояс: GMT + 2 Години

Нова тема   Відповісти