Завантажити та скачати торренти українською


Боєць / The Fighter (2010) 720р Ukr/Eng | Sub Ukr/Eng

Нові коментарі

Нова тема   Відповісти
Автор Повідомлення
11FrYkT 
Модератор відео


З нами з: 20.02.11
Востаннє: 08.12.16
Повідомлень: 3132

2012-08-01 17:25  
Боєць / The Fighter (2010) 720р Ukr/Eng | Sub Ukr/Eng

Боєць / The Fighter (2010) 720р Ukr/Eng | Sub Ukr/Eng

«Кожна мрія заслуговує шанс на успіх».



Жанр: біографічний, драма, спорт
Країна: США



Кіностудія / кінокомпанія: Closest to the Hole Productions, Fighter, Mandeville Films, Park Entertainment, The, Relativity Media, Weinstein Company, The
Режисер: Девід О. Расселл / David O. Russell
Актори: Марк Волберґ / Mark Wahlberg, Крістіан Бейл / Christian Bale, Емі Адамс / Amy Adams, Мелісса Лео / Melissa Leo, Мікі О'Кіф / Mickey O'Keefe, Джек Маꥳ / Jack McGee, Мелісса МакМікін / Melissa McMeekin, Б'янка Хантер / Bianca Hunter, Еріка МакДермот / Erica McDermott, Джилл Куіґ / Jill Quigg, Дендрі Тейлор / Dendrie Taylor, Кейт Б. О'Брайен / Kate B. O'Brien, Дженна Ламіа / Jenna Lamia, Франк Рензуллі / Frank Renzulli, Пол Кемпбелл / Paul Campbell

Сюжет:
Дікі Еклунд - гордість ірландських мешканців робітничих районів Ловелла, штат Массачусетс, боксер, який мріє про чемпіонський пояс і має на нього всі шанси. В тіні Дікової слави живе Мікі - його брат і спаринг-партнер, якому, здається, навіть нема чого мріяти про щось більше, за подавання рушничка чемпіонові. Проте, зазнавши принизливої поразки на чемпіонаті від Рея Леонарда, Дікі занурюється в пітьму наркоманії, алкоголізму та насильства, зрештою потрапляючи до в'язниці. Мікі ж, у відчаї, виходить на ринг, намагаючись врятувати від злиднів сім'ю.


Тривалість: 01:55:38
Якість: 720p
Відео:
кодек:
розмір кадру: 1280 x 534
бітрейт: 8089 кб/с

Аудіо # 1:
мова: українська
переклад: багатоголосий закадровий (псевдо дубляж)
кодек: 2.0
бітрейт: 192 кб/с
Фільм перекладено і озвучено на студії Tretyakoff production на замовлення Aurora Distribution

Аудіо # 2:
мова: англійська
переклад: оригінал
кодек: 5.1
бітрейт: 1536 кб/с

Субтитри:
мова: українська
тип: програмні (м'які)
формат: *.srt

Субтитри:
мова: англійська
тип: програмні (м'які)
формат: *.srt
MediaInfo
Код:
The Fighter (2010) 720р.mkv
   General
      UniqueID : 242593989842546971081201322460624635446 (0xB681E726DA98FA3184CD6679285AC636)
      Complete name : The Fighter (2010) 720р.mkv
      Format : Matroska
      File size : 7.91 GiB
      Duration : 1h 55mn
      Overall bit rate : 9 790 Kbps
      Encoded date : UTC 2012-08-01 14:54:31
      Writing application : mkvmerge v4.9.1 ('Ich will') зібрано Jul 11 2011 23:53:15
      Writing library : libebml v1.2.1 + libmatroska v1.1.1
   Video #1
      ID : 1
      Format : AVC
      Format/Info : Advanced Video Codec
      Format profile : [email protected]
      Format settings, CABAC : Yes
      Format settings, ReFrames : 12 frames
      Codec ID : V_MPEG4/ISO/AVC
      Duration : 1h 55mn
      Bit rate : 8 087 Kbps
      Width : 1 280 pixels
      Height : 534 pixels
      Display aspect ratio : 2.35:1
      Frame rate : 23.976 fps
      Color space : YUV
      Chroma subsampling : 4:2:0
      Bit depth : 8 bits
      Scan type : Progressive
      Bits/(Pixel*Frame) : 0.493
      Stream size : 6.38 GiB (81%)
      Writing library : core 114 r1913 5fd3dce
      Encoding settings : cabac=1 / ref=12 / deblock=1:-3:-3 / analyse=0x3:0x113 / me=tesa / subme=10 / psy=1 / psy_rd=0.95:0.00 / mixed_ref=1 / me_range=32 / chroma_me=1 / trellis=2 / 8x8dct=1 / cqm=0 / deadzone=21,11 / fast_pskip=0 / chroma_qp_offset=-2 / threads=12 / sliced_threads=0 / nr=0 / decimate=1 / interlaced=0 / constrained_intra=0 / bframes=6 / b_pyramid=2 / b_adapt=2 / b_bias=0 / direct=3 / weightb=1 / open_gop=0 / weightp=2 / keyint=250 / keyint_min=23 / scenecut=40 / intra_refresh=0 / rc=2pass / mbtree=0 / bitrate=8087 / ratetol=1.0 / qcomp=0.60 / qpmin=0 / qpmax=69 / qpstep=4 / cplxblur=20.0 / qblur=0.5 / ip_ratio=1.40 / pb_ratio=1.30 / aq=1:0.80
      Language : English
   Audio #2
      ID : 2
      Format : AC-3
      Format/Info : Audio Coding 3
      Mode extension : CM (complete main)
      Codec ID : A_AC3
      Duration : 1h 55mn
      Bit rate mode : Constant
      Bit rate : 192 Kbps
      Channel(s) : 2 channels
      Channel positions : Front: L R
      Sampling rate : 48.0 KHz
      Bit depth : 16 bits
      Compression mode : Lossy
      Stream size : 159 MiB (2%)
      Title : 2.0 @ 192 kb/s
      Language : Ukrainian
   Audio #3
      ID : 3
      Format :
      Format/Info : Digital Theater Systems
      Codec ID : A_DTS
      Duration : 1h 55mn
      Bit rate mode : Constant
      Bit rate : 1 510 Kbps
      Channel(s) : 6 channels
      Channel positions : Front: L C R, Side: L R, LFE
      Sampling rate : 48.0 KHz
      Bit depth : 24 bits
      Compression mode : Lossy
      Stream size : 1.22 GiB (15%)
      Title : 5.1 @ 1536 kb/s
      Language : English
   Text #4
      ID : 4
      Format : UTF-8
      Codec ID : S_TEXT/UTF8
      Codec ID/Info : UTF-8 Plain Text
      Language : Ukrainian
   Text #5
      ID : 5
      Format : UTF-8
      Codec ID : S_TEXT/UTF8
      Codec ID/Info : UTF-8 Plain Text
      Language : English
Світлини






Джерело: &
Особиста оцінка: 8 - мені сподобалося
Подяка пану karvai0 за звукову доріжку.
Подяка панам richman, w2958l, Tarasyk за українські субтитри.


 Трекер:    Зареєстрований   

Завантажити / скачати фільм українською



відео для новачків



 Зареєстрований:   2012-08-01 17:25
 Розмір:   7.91 GB 
 Оцінка фільму:   9.3/10 (Голосів: 13)
   
Інші релізи
   Боєць / The Fighter (2010) Ukr | Sub Ukr/Eng patriot2305  3 / 0   1.25 GB   2012-08-19 16:07 
   Боєць / The Fighter (2010) AVC Ukr/Eng | Sub Ukr/Eng Gelios  8 / 0   2.7 GB   2012-08-01 14:31 
   Боєць / The Fighter (2010) Ukr/Eng | Sub Ukr/Eng karvai0  3 / 0   2.03 GB   2012-08-01 14:30 
   Боєць / The Fighter (2010) 720p-mini Eng | Sub Ukr/Eng lpershyi  0 / 0   2.38 GB   2011-10-23 13:42 
prt1 
Новенький


З нами з: 11.07.12
Востаннє: 08.12.16
Повідомлень: 3

2016-02-16 22:42  
от би ще й хтось роздавати почав, бо дуже хочеться подивитися у норм якості
Ваш часовий пояс: GMT + 2 Години

Нова тема   Відповісти