Завантажити та скачати торренти українською


Особливо небезпечний / Wanted (2008) 720p Ukr/Eng | Sub Eng

Нові коментарі

Нова тема   Відповісти
Автор Повідомлення
11FrYkT 
Модератор відео


З нами з: 20.02.11
Востаннє: 09.12.16
Повідомлень: 3135

2012-08-01 13:35  
Особливо небезпечний / Wanted (2008) 720p Ukr/Eng | Sub Eng

Особливо небезпечний / Wanted (2008) 720p Ukr/Eng | Sub Eng

«Вибери свою долю»



Жанр: бойовик, екшн
Країна: США



Кіностудія / кінокомпанія: Universal
Режисер: Тимур Бекмамбетов
Актори: Джеймс Макевой , Анджеліна Джолі , Морган Фрімен

Сюжет:
25-річний Веслі Гібсон нудьгує на роботі і страждає через те, що подружка зраджує йому з найкращим другом. Несподівано у його життя вривається красуня Фокс, яка розповідає Веслі, що його батько був членом Братства - таємної ліги вбивць.


Тривалість: 01:50:00
Якість: 720p
Відео:
кодек:
розмір кадру: 1280 x 544
бітрейт: 7000 кб/с

Аудіо # 1:
мова: українська
переклад: професійний дубльований
кодек: 5.1
бітрейт: 384 кб/с

Аудіо # 2:
мова: англійська
переклад: оригінал
кодек: 5.1
бітрейт: 1536 кб/с

Субтитри:
мова: англійська
тип: програмні (м'які)
формат: *.srt
MediaInfo
Код:
Wanted (2008) 720p.mkv
   General
      UniqueID : 210388093545653889628976553551664403210 (0x9E4745DEC11DAC2CBD1CAF4F8F0A530A)
      Complete name : Wanted (2008) 720p.mkv
      Format : Matroska
      File size : 6.84 GiB
      Duration : 1h 50mn
      Overall bit rate : 8 866 Kbps
      Encoded date : UTC 2012-08-01 09:11:57
      Writing application : mkvmerge v4.9.1 ('Ich will') зібрано Jul 11 2011 23:53:15
      Writing library : libebml v1.2.1 + libmatroska v1.1.1
      Cover : Yes / Yes / Yes / Yes / Yes
   Video #1
      ID : 1
      Format : AVC
      Format/Info : Advanced Video Codec
      Format profile : [email protected]
      Format settings, CABAC : Yes
      Format settings, ReFrames : 8 frames
      Codec ID : V_MPEG4/ISO/AVC
      Duration : 1h 50mn
      Bit rate : 7 000 Kbps
      Width : 1 280 pixels
      Height : 544 pixels
      Display aspect ratio : 2.35:1
      Frame rate : 23.976 fps
      Color space : YUV
      Chroma subsampling : 4:2:0
      Bit depth : 8 bits
      Scan type : Progressive
      Bits/(Pixel*Frame) : 0.419
      Stream size : 5.24 GiB (77%)
      Writing library : core 65 r1016M dbc5ef0
      Encoding settings : cabac=1 / ref=8 / deblock=1:-3:-3 / analyse=0x3:0x133 / me=umh / subme=9 / psy_rd=0.8:0.8 / mixed_ref=1 / me_range=24 / chroma_me=1 / trellis=2 / 8x8dct=1 / cqm=2 / deadzone=21,11 / chroma_qp_offset=-2 / threads=6 / nr=0 / decimate=1 / mbaff=0 / bframes=3 / b_pyramid=1 / b_adapt=2 / b_bias=0 / direct=3 / wpredb=1 / keyint=250 / keyint_min=25 / scenecut=40(pre) / rc=2pass / bitrate=7000 / ratetol=1.0 / qcomp=0.60 / qpmin=10 / qpmax=30 / qpstep=4 / cplxblur=20.0 / qblur=0.5 / ip_ratio=1.40 / pb_ratio=1.30 / aq=1:0.70
      Language : English
   Audio #2
      ID : 2
      Format : AC-3
      Format/Info : Audio Coding 3
      Mode extension : CM (complete main)
      Codec ID : A_AC3
      Duration : 1h 50mn
      Bit rate mode : Constant
      Bit rate : 384 Kbps
      Channel(s) : 6 channels
      Channel positions : Front: L C R, Side: L R, LFE
      Sampling rate : 48.0 KHz
      Bit depth : 16 bits
      Compression mode : Lossy
      Stream size : 303 MiB (4%)
      Title : 5.1 @ 3854 kb/s
      Language : Ukrainian
   Audio #3
      ID : 3
      Format :
      Format/Info : Digital Theater Systems
      Codec ID : A_DTS
      Duration : 1h 50mn
      Bit rate mode : Constant
      Bit rate : 1 510 Kbps
      Channel(s) : 6 channels
      Channel positions : Front: L C R, Side: L R, LFE
      Sampling rate : 48.0 KHz
      Bit depth : 24 bits
      Compression mode : Lossy
      Stream size : 1.16 GiB (17%)
      Title : 5.1 @ 1536 kb/s
      Language : English
   Text #4
      ID : 4
      Format : ASS
      Codec ID : S_TEXT/ASS
      Codec ID/Info : Advanced Sub Station Alpha
      Compression mode : Lossless
      Language : English
Світлини





Джерело: &
Особиста оцінка: 8 - мені сподобалося


 Трекер:    Зареєстрований   

Завантажити / скачати фільм українською



відео для новачків



 Зареєстрований:   2012-08-01 13:35
 Розмір:   6.84 GB 
 Оцінка фільму:   8.6/10 (Голосів: 12)
   
Інші релізи
   Розшукується герой / Hero Wanted (2008) Ukr/Eng ninenine  2 / 0   1.62 GB   2016-02-27 17:40 
   Особливо небезпечний / Wanted (2008) 720p-mini (60 fps) Drool  3 / 0   5.4 GB   2016-01-25 12:30 
   Особливо небезпечний / Wanted (2008) 2xUkr patriot2305  2 / 0   1.75 GB   2012-09-20 18:40 
   Особливо небезпечний / Wanted (2008) 2xUkr/Eng | Sub Eng _oles  0 / 2   2.48 GB   2012-09-18 16:45 
   Особливо небезпечний / Wanted (2008) 1080p Ukr/Eng |Sub Eng DiGen  2 / 0   6.56 GB   2010-05-02 14:08 
   Особливо небезпечний / Wanted (2008) AVC Brut  0 / 1   1.98 GB   2010-01-28 15:11 
taras1994 
Почесний оцифрувальник літератури


З нами з: 23.03.12
Востаннє: 30.11.16
Повідомлень: 5096

2012-08-01 14:54  
Подібний сюжет має фільм орлиний зір. Фільм з таким сюжетом дуже ефектні, можливо не все те правда, що в них показують, але їх цікаво дивитися.
The_Marlboro 
Відео Гуртом - субтитрування
Відео Гуртом - субтитрування


З нами з: 23.05.10
Востаннє: 09.12.16
Повідомлень: 2854

2012-08-01 16:28  
taras1994 написано:
Подібний сюжет має фільм орлиний зір. Фільм з таким сюжетом дуже ефектні, можливо не все те правда, що в них показують, але їх цікаво дивитися.

Зовсім не схожі. Орлиний зір шедевр проти цього лайна.

taras1994 
Почесний оцифрувальник літератури


З нами з: 23.03.12
Востаннє: 30.11.16
Повідомлень: 5096

2012-10-21 10:44  
TheMarlboro написано:
Зовсім не схожі. Орлиний зір шедевр проти цього лайна.

я помилився, то серіал особливо небезпечний є подібним до орлиного зору, спостереження спецслужб, супер комп'ютер і все таке.

TatkaFursa 
Новенький


З нами з: 08.10.14
Востаннє: 09.12.16
Повідомлень: 8

2016-01-08 10:22  
Вибачте, можете хтось на роздачу стати, бо швидкість 0
Ваш часовий пояс: GMT + 2 Години

Нова тема   Відповісти