Завантажити та скачати торренти українською


Хешер / Hesher (2010) 720p Ukr/Eng | sub Ukr / Eng

Нові коментарі

Нова тема   Відповісти
Автор Повідомлення
11FrYkT 
Модератор відео


З нами з: 20.02.11
Востаннє: 11.12.16
Повідомлень: 3142

2012-08-01 10:31  
Хешер / Hesher (2010) 720p Ukr/Eng | sub Ukr / Eng

Хешер / Hesher (2010) 720p Ukr/Eng | sub Ukr / Eng

«Sometimes life gives you the finger and sometimes it gives you...»



Жанр: драма
Країна: США



Кіностудія / кінокомпанія: Last Picture Company, The, CatchPlay, Corner Store Entertainment
Режисер: Спенсер Сассер
Актори: Джозеф Гордон-Люїтт, Наталі Портман, Девін Брошу, Рейн Уілсон та інші

Сюжет:
Хешер - одинак. Він ненавидить світ і всіх, хто в ньому живе. Він ходить з давно не митим волоссям і саморобними татуюваннями, які прикрашають його тіло. Він погано харчується і курить багато сигарет. Він любить вогонь і часто підпалює різні предмети. Він мирно жив у своєму фургоні доки не зустрів Ті Джея ...


Тривалість: 01:45:55
Якість: 720р
Відео:
кодек:
розмір кадру: 1280 х 544
бітрейт: 5270 кб/с

Аудіо # 1:
мова: українська
переклад: одноголосий закадровий | Ursulyak [ BOOGud ] | UAVoice
кодек: 2.0
бітрейт: 256 кб/с

Аудіо # 2:
мова: англійська
переклад: оригінал
кодек: 5.1
бітрейт: 640 кб/с

Субтитри:
мова: українська
тип: програмні (м'які)
формат: *.srt

Субтитри:
мова: англійська
тип: програмні (м'які)
формат: *.srt
MediaInfo
Код:
Hesher (2010) 720p.mkv
   General
      UniqueID : 237682673396896174095446286210628484323 (0xB2D0048E4275CADBAF814D4ABB867CE3)
      Complete name : Hesher (2010) 720p.mkv
      Format : Matroska
      File size : 4.56 GiB
      Duration : 1h 45mn
      Overall bit rate : 6 166 Kbps
      Encoded date : UTC 2012-07-31 15:40:51
      Writing application : mkvmerge v4.9.1 ('Ich will') зібрано Jul 11 2011 23:53:15
      Writing library : libebml v1.2.1 + libmatroska v1.1.1
   Video #1
      ID : 1
      Format : AVC
      Format/Info : Advanced Video Codec
      Format profile : [email protected]
      Format settings, CABAC : Yes
      Format settings, ReFrames : 4 frames
      Codec ID : V_MPEG4/ISO/AVC
      Duration : 1h 45mn
      Bit rate : 5 270 Kbps
      Width : 1 280 pixels
      Height : 544 pixels
      Display aspect ratio : 2.35:1
      Frame rate : 23.976 fps
      Color space : YUV
      Chroma subsampling : 4:2:0
      Bit depth : 8 bits
      Scan type : Progressive
      Bits/(Pixel*Frame) : 0.316
      Stream size : 3.81 GiB (83%)
      Writing library : core 116 r2019 9cc407d
      Encoding settings : cabac=1 / ref=4 / deblock=1:-3:-3 / analyse=0x3:0x113 / me=umh / subme=9 / psy=1 / psy_rd=1.20:0.10 / mixed_ref=1 / me_range=24 / chroma_me=1 / trellis=2 / 8x8dct=1 / cqm=0 / deadzone=21,11 / fast_pskip=1 / chroma_qp_offset=-3 / threads=3 / sliced_threads=0 / nr=0 / decimate=0 / interlaced=0 / bluray_compat=0 / constrained_intra=0 / bframes=7 / b_pyramid=2 / b_adapt=2 / b_bias=0 / direct=3 / weightb=1 / open_gop=0 / weightp=2 / keyint=250 / keyint_min=23 / scenecut=40 / intra_refresh=0 / rc_lookahead=40 / rc=2pass / mbtree=1 / bitrate=5270 / ratetol=1.0 / qcomp=0.60 / qpmin=0 / qpmax=69 / qpstep=4 / cplxblur=20.0 / qblur=0.5 / ip_ratio=1.40 / aq=1:1.20
      Language : English
   Audio #2
      ID : 2
      Format : AC-3
      Format/Info : Audio Coding 3
      Mode extension : CM (complete main)
      Codec ID : A_AC3
      Duration : 1h 45mn
      Bit rate mode : Constant
      Bit rate : 256 Kbps
      Channel(s) : 2 channels
      Channel positions : Front: L R
      Sampling rate : 48.0 KHz
      Bit depth : 16 bits
      Compression mode : Lossy
      Stream size : 194 MiB (4%)
      Title : 2.0  @ 256  Kbps
      Language : Ukrainian
   Audio #3
      ID : 3
      Format : AC-3
      Format/Info : Audio Coding 3
      Mode extension : CM (complete main)
      Codec ID : A_AC3
      Duration : 1h 45mn
      Bit rate mode : Constant
      Bit rate : 640 Kbps
      Channel(s) : 6 channels
      Channel positions : Front: L C R, Side: L R, LFE
      Sampling rate : 48.0 KHz
      Bit depth : 16 bits
      Compression mode : Lossy
      Stream size : 485 MiB (10%)
      Title : 5.1 @ 640 Kbps
      Language : English
   Text #4
      ID : 4
      Format : UTF-8
      Codec ID : S_TEXT/UTF8
      Codec ID/Info : UTF-8 Plain Text
      Language : Ukrainian
   Text #5
      ID : 5
      Format : UTF-8
      Codec ID : S_TEXT/UTF8
      Codec ID/Info : UTF-8 Plain Text
      Language : English
Світлини







Джерело: &
Особиста оцінка: 0 - не дивився


Золотий реліз (завантажене не впливає на рейтинг)
 Трекер:    Зареєстрований   

Завантажити / скачати фільм українською



відео для новачків



 Зареєстрований:   2012-08-01 10:31
 Розмір:   4.56 GB 
 Оцінка фільму:   8.4/10 (Голосів: 12)
   
Інші релізи
   Хешер / Hesher (2010) Ukr/Eng | sub Ukr / Eng BOOGud  2 / 0   2.04 GB   2012-07-28 13:58 
Genek 
Свій


З нами з: 16.10.10
Востаннє: 10.12.16
Повідомлень: 69

2012-08-01 21:54  
Ну, і як фільм, хто дивився?
aalleexx85 
Відео Гуртом - фільмокрай
Відео Гуртом - фільмокрай


З нами з: 27.07.10
Востаннє: 11.12.16
Повідомлень: 1139

2012-08-02 08:35  
Genek написано:
Ну, і як фільм, хто дивився?

я дивився, фільм класний

Kovex 
Відео Гуртом - підтримка та поширення
Відео Гуртом - підтримка та поширення


З нами з: 01.09.09
Востаннє: 11.12.16
Повідомлень: 402

2016-04-17 01:50  
Станьте будь ласка на роздачу.
Ваш часовий пояс: GMT + 2 Години

Нова тема   Відповісти