Завантажити та скачати торренти українською


Одного разу на Дикому Заході / C'era una volta il West / Once Upon a Time in the West (1968) 720p Ukr/Eng | Sub Eng

Нові коментарі

Нова тема   Відповісти
Автор Повідомлення
11FrYkT 
Модератор відео


З нами з: 20.02.11
Востаннє: 11.12.16
Повідомлень: 3141

2012-07-31 14:15  
Одного разу на Дикому Заході / C'era una volta il West / Once Upon a Time in the West (1968) 720p Ukr/Eng | Sub Eng

Одного разу на Дикому Заході / C'era una volta il West / Once Upon a Time in the West (1968) 720p Ukr/Eng | Sub Eng

«There were three men in her life. One to take her... one to love her... and one to kill her.»



Жанр: вестерн
Країна: США, Італія

Top 250 #22

Кіностудія / кінокомпанія: Finanzia San Marco, Rafran Cinematografica, Paramount Pictures
Режисер: Серджіо Леоне
Актори: Генрі Фонда, Клаудіа Кардінале, Джейсон Робардс, Чарльз Бронсон, Габліеле Ферцетті, Паоло Стоппа

Сюжет:
Будівництво залізниці на Дикому Заході несе не тільки прогрес, але і великі гроші. Залізничний магнат заради досягнення мети не зупиняється ні перед чим, навіть перед вбивством молодої вдови, через чию ферму повинні прокладати рейки. Але на Дикому Заході не все продається і не все купується. На її захист стають справжні герої, для яких є тільки два слова - честь і револьвер.


Тривалість: 02:46:01
Якість: 720p
Відео:
кодек:
розмір кадру: 1284 x 544
бітрейт: 5548 кб/с

Аудіо # 1:
мова: українська
переклад: багатоголосий закадровий
кодек: 5.1
бітрейт: 1536 кб/с

Аудіо # 2:
мова: українська
переклад: багатоголосий закадровий
кодек: 5.1
бітрейт: 448 кб/с

Аудіо # 3:
мова: англійська
переклад: оригінал
кодек: 5.1
бітрейт: 1536 кб/с

Джерело озвучення:
ТО "Цікава ідея" на замовлення Hurtom.com

Субтитри(SDH):
мова: англійська
тип: програмні (м'які)
формат: *.srt

Субтитри(Full):
мова: англійська
тип: програмні (м'які)
формат: *.srt
MediaInfo
Код:
Once Upon a Time in the West (1968) 720p.mkv
   General
      UniqueID : 218926074309354088711323392133945776640 (0xA4B3A0D27FA12B96BF27C6084ABA5A00)
      Complete name : Once Upon a Time in the West (1968) 720p.mkv
      Format : Matroska
      File size : 10.7 GiB
      Duration : 2h 46mn
      Overall bit rate : 9 198 Kbps
      Movie name : Once Upon A Time In The West (1968) 720p
      Encoded date : UTC 2012-07-31 09:17:19
      Writing application : mkvmerge v4.9.1 ('Ich will') зібрано Jul 11 2011 23:53:15
      Writing library : libebml v1.2.1 + libmatroska v1.1.1
      Cover : Yes
   Video #1
      ID : 1
      Format : AVC
      Format/Info : Advanced Video Codec
      Format profile : [email protected]
      Format settings, CABAC : Yes
      Format settings, ReFrames : 10 frames
      Format settings, GOP : M=5, N=27
      Codec ID : V_MPEG4/ISO/AVC
      Duration : 2h 46mn
      Bit rate : 5 548 Kbps
      Width : 1 280 pixels
      Height : 544 pixels
      Display aspect ratio : 2.35:1
      Frame rate : 23.976 fps
      Color space : YUV
      Chroma subsampling : 4:2:0
      Bit depth : 8 bits
      Scan type : Progressive
      Bits/(Pixel*Frame) : 0.332
      Stream size : 6.43 GiB (60%)
      Title : Once Upon A Time In The West (1968) 720p
      Writing library : core 115 r1995 c1e60b9
      Encoding settings : cabac=1 / ref=10 / deblock=1:-3:-3 / analyse=0x3:0x133 / me=tesa / subme=10 / psy=1 / psy_rd=1.00:0.00 / mixed_ref=1 / me_range=32 / chroma_me=1 / trellis=2 / 8x8dct=1 / cqm=0 / deadzone=21,11 / fast_pskip=0 / chroma_qp_offset=-2 / threads=12 / sliced_threads=0 / nr=0 / decimate=1 / interlaced=0 / bluray_compat=0 / constrained_intra=0 / bframes=9 / b_pyramid=2 / b_adapt=2 / b_bias=0 / direct=3 / weightb=1 / open_gop=0 / weightp=2 / keyint=250 / keyint_min=23 / scenecut=40 / intra_refresh=0 / rc_lookahead=60 / rc=crf / mbtree=1 / crf=17.3 / qcomp=0.65 / qpmin=0 / qpmax=69 / qpstep=4 / vbv_maxrate=50000 / vbv_bufsize=62500 / crf_max=0.0 / nal_hrd=none / ip_ratio=1.40 / aq=1:0.85
      Language : English
      Matrix coefficients : BT.709-5, BT.1361, IEC 61966-2-4 709, SMPTE RP177
   Audio #2
      ID : 2
      Format :
      Format/Info : Digital Theater Systems
      Codec ID : A_DTS
      Duration : 2h 46mn
      Bit rate mode : Constant
      Bit rate : 1 510 Kbps
      Channel(s) : 6 channels
      Channel positions : Front: L C R, Side: L R, LFE
      Sampling rate : 48.0 KHz
      Bit depth : 24 bits
      Compression mode : Lossy
      Stream size : 1.75 GiB (16%)
      Title : 5.1 @ 1536 kbps
      Language : Ukrainian
   Audio #3
      ID : 3
      Format : AC-3
      Format/Info : Audio Coding 3
      Mode extension : CM (complete main)
      Codec ID : A_AC3
      Duration : 2h 46mn
      Bit rate mode : Constant
      Bit rate : 448 Kbps
      Channel(s) : 6 channels
      Channel positions : Front: L C R, Side: L R, LFE
      Sampling rate : 48.0 KHz
      Bit depth : 16 bits
      Compression mode : Lossy
      Stream size : 532 MiB (5%)
      Title : 5.1 @ 448 kbps
      Language : Ukrainian
   Audio #4
      ID : 4
      Format :
      Format/Info : Digital Theater Systems
      Codec ID : A_DTS
      Duration : 2h 46mn
      Bit rate mode : Constant
      Bit rate : 1 510 Kbps
      Channel(s) : 6 channels
      Channel positions : Front: L C R, Side: L R, LFE
      Sampling rate : 48.0 KHz
      Bit depth : 24 bits
      Compression mode : Lossy
      Stream size : 1.75 GiB (16%)
      Title : 5.1 @ 1536 kbps
      Language : English
   Text #5
      ID : 5
      Format : UTF-8
      Codec ID : S_TEXT/UTF8
      Codec ID/Info : UTF-8 Plain Text
      Title : SDH
      Language : English
   Text #6
      ID : 6
      Format : UTF-8
      Codec ID : S_TEXT/UTF8
      Codec ID/Info : UTF-8 Plain Text
      Title : Full
      Language : English
Світлини








Джерело: &
Особиста оцінка: 8 - мені сподобалося
За українську доріжку 5.1 подяка пану Konfucius


Авторський реліз (завантажувати можна без реєстрації)
 Трекер:    Зареєстрований   

Завантажити / скачати фільм українською



відео для новачків



 Зареєстрований:   2012-07-31 14:15
 Розмір:   10.67 GB 
 Оцінка фільму:   9.2/10 (Голосів: 11)
   
bilenkuyboy 
Відео Гуртом - дизайнер
Відео Гуртом - дизайнер


З нами з: 17.06.08
Востаннє: 09.12.16
Повідомлень: 1582

2012-07-31 14:35  
11FrYkT написано:
7200p

не зле)) але виправ!

11FrYkT 
Модератор відео


З нами з: 20.02.11
Востаннє: 11.12.16
Повідомлень: 3141

2012-07-31 14:37  
bilenkuyboy , дякую
karvai0 
Відео Гуртом - запис з ТБ
Відео Гуртом - запис з ТБ


З нами з: 18.01.10
Востаннє: 09.09.16
Повідомлень: 3686

2012-07-31 14:40  
11FrYkT написано:
2XUkr

нащо пишеш 2 якщо тут одна озвучка

11FrYkT 
Модератор відео


З нами з: 20.02.11
Востаннє: 11.12.16
Повідомлень: 3141

2012-07-31 15:07  
karvai0 , ось в цій роздачі писав що одна http://toloka.to/t38265 сказали виправити, тому і тут пишу
chidorisaske 
Свій


З нами з: 05.06.11
Востаннє: 20.11.16
Повідомлень: 84

2012-07-31 17:13  
Дякую. Поправте будь ласка Одного разу на Дикому Заході / C'era una volta il West / Once Upon a Time in the West (1968) 7200p 2XUkr/Eng | Sub Eng
11FrYkT 
Модератор відео


З нами з: 20.02.11
Востаннє: 11.12.16
Повідомлень: 3141

2012-07-31 17:24  
chidorisaske , будь ласка, забув що я це 720р копіював. ДЯкую за виправлення
Konfucius 
Управління
Управління


З нами з: 30.09.07
Востаннє: 11.12.16
Повідомлень: 4748

2012-07-31 21:17  
Я не розумію. Який сенс включати і однієї озвучки?
11FrYkT 
Модератор відео


З нами з: 20.02.11
Востаннє: 11.12.16
Повідомлень: 3141

2012-07-31 21:25  
Konfucius , та включив щоб на різний смак, комусь треба комусь ні, всім догодити не можу. Надалі врахую це і не буду добавляти.
Косячок справжній 
VIP


З нами з: 29.02.12
Востаннє: 10.12.16
Повідомлень: 659

2015-05-08 20:18  
Гарні краєвиди, фінальні 30 хвилин чудові, є певні штучки, які не подобаються, але то не так важливо.
Хоча десь посередині стрічки враження було нудного видива, проте, під кінець кіно сподобалося.

Ваш часовий пояс: GMT + 2 Години

Нова тема   Відповісти