Завантажити та скачати торренти українською


Одного разу на Дикому Заході / C'era una volta il West / Once Upon a Time in the West (1968) 1080p Ukr/Eng | Sub Eng

Нові коментарі

Нова тема   Відповісти
Автор Повідомлення
11FrYkT 
Модератор відео


З нами з: 20.02.11
Востаннє: 04.12.16
Повідомлень: 3079

2012-07-31 08:15  
Одного разу на Дикому Заході / C'era una volta il West / Once Upon a Time in the West (1968) 1080p Ukr/Eng | Sub Eng

Одного разу на Дикому Заході / C'era una volta il West / Once Upon a Time in the West (1968) 1080p Ukr/Eng | Sub Eng

«There were three men in her life. One to take her... one to love her... and one to kill her.»



Жанр: вестерн
Країна: США, Італія

Top 250 #22

Кіностудія / кінокомпанія: Finanzia San Marco, Rafran Cinematografica, Paramount Pictures
Режисер: Серджіо Леоне
Актори: Генрі Фонда, Клаудіа Кардінале, Джейсон Робардс, Чарльз Бронсон, Габліеле Ферцетті, Паоло Стоппа

Сюжет:
Будівництво залізниці на Дикому Заході несе не тільки прогрес, але і великі гроші. Залізничний магнат заради досягнення мети не зупиняється ні перед чим, навіть перед вбивством молодої вдови, через чию ферму повинні прокладати рейки. Але на Дикому Заході не все продається і не все купується. На її захист стають справжні герої, для яких є тільки два слова - честь і револьвер.


Тривалість: 02:46:01
Якість: 1080p
Відео:
кодек:
розмір кадру: 1920 x 816
бітрейт: 13 Mб/с

Аудіо # 1:
мова: українська
переклад: багатоголосий закадровий
кодек: 5.1
бітрейт: 1536 кб/с

Аудіо # 2:
мова: українська
переклад: багатоголосий закадровий
кодек: 5.1
бітрейт: 448 кб/с

Аудіо # 3:
мова: англійська
переклад: оригінал
кодек: 5.1
бітрейт: 1536 кб/с

Джерело озвучення:
ТО "Цікава ідея" на замовлення Hurtom.com

Субтитри(SDH):
мова: англійська
тип: програмні (м'які)
формат: *.srt

Субтитри(Full):
мова: англійська
тип: програмні (м'які)
формат: *.srt
MediaInfo
Код:
Once Upon a Time in the West (1968) 1080p.mkv
   General
      UniqueID : 215614605981255261376308940235713270765 (0xA235DCD40D4A6E8D9086D3396983D3ED)
      Complete name : Once Upon a Time in the West (1968) 1080p.mkv
      Format : Matroska
      File size : 19.1 GiB
      Duration : 2h 46mn
      Overall bit rate : 16.5 Mbps
      Movie name : Once Upon A Time In The West (1968) 1080p
      Encoded date : UTC 2012-07-30 20:20:28
      Writing application : mkvmerge v4.9.1 ('Ich will') зібрано Jul 11 2011 23:53:15
      Writing library : libebml v1.2.1 + libmatroska v1.1.1
      Cover : Yes
   Video #1
      ID : 1
      Format : AVC
      Format/Info : Advanced Video Codec
      Format profile : [email protected]
      Format settings, CABAC : Yes
      Format settings, ReFrames : 4 frames
      Codec ID : V_MPEG4/ISO/AVC
      Duration : 2h 46mn
      Bit rate : 13.0 Mbps
      Width : 1 920 pixels
      Height : 816 pixels
      Display aspect ratio : 2.35:1
      Frame rate : 23.976 fps
      Color space : YUV
      Chroma subsampling : 4:2:0
      Bit depth : 8 bits
      Scan type : Progressive
      Bits/(Pixel*Frame) : 0.346
      Stream size : 14.7 GiB (77%)
      Title : Once Upon A Time In The West (1968) 1080p
      Writing library : core 115 r1995 c1e60b9
      Encoding settings : cabac=1 / ref=4 / deblock=1:-3:-3 / analyse=0x3:0x133 / me=esa / subme=10 / psy=1 / psy_rd=1.00:0.00 / mixed_ref=1 / me_range=32 / chroma_me=1 / trellis=2 / 8x8dct=1 / cqm=0 / deadzone=21,11 / fast_pskip=0 / chroma_qp_offset=-2 / threads=12 / sliced_threads=0 / nr=0 / decimate=0 / interlaced=0 / bluray_compat=0 / constrained_intra=0 / bframes=7 / b_pyramid=2 / b_adapt=2 / b_bias=0 / direct=3 / weightb=1 / open_gop=0 / weightp=2 / keyint=250 / keyint_min=23 / scenecut=40 / intra_refresh=0 / rc_lookahead=60 / rc=2pass / mbtree=1 / bitrate=13000 / ratetol=1.0 / qcomp=0.65 / qpmin=0 / qpmax=69 / qpstep=4 / cplxblur=20.0 / qblur=0.5 / vbv_maxrate=50000 / vbv_bufsize=62500 / nal_hrd=none / ip_ratio=1.40 / aq=1:0.85
      Language : English
      Matrix coefficients : BT.709-5, BT.1361, IEC 61966-2-4 709, SMPTE RP177
   Audio #2
      ID : 2
      Format :
      Format/Info : Digital Theater Systems
      Codec ID : A_DTS
      Duration : 2h 46mn
      Bit rate mode : Constant
      Bit rate : 1 510 Kbps
      Channel(s) : 6 channels
      Channel positions : Front: L C R, Side: L R, LFE
      Sampling rate : 48.0 KHz
      Bit depth : 24 bits
      Compression mode : Lossy
      Stream size : 1.75 GiB (9%)
      Title :   5.1 @ 1536 kbps
      Language : Ukrainian
   Audio #3
      ID : 3
      Format : AC-3
      Format/Info : Audio Coding 3
      Mode extension : CM (complete main)
      Codec ID : A_AC3
      Duration : 2h 46mn
      Bit rate mode : Constant
      Bit rate : 448 Kbps
      Channel(s) : 6 channels
      Channel positions : Front: L C R, Side: L R, LFE
      Sampling rate : 48.0 KHz
      Bit depth : 16 bits
      Compression mode : Lossy
      Stream size : 532 MiB (3%)
      Title :   5.1 @ 448 kbps
      Language : Ukrainian
   Audio #4
      ID : 4
      Format :
      Format/Info : Digital Theater Systems
      Codec ID : A_DTS
      Duration : 2h 46mn
      Bit rate mode : Constant
      Bit rate : 1 510 Kbps
      Channel(s) : 6 channels
      Channel positions : Front: L C R, Side: L R, LFE
      Sampling rate : 48.0 KHz
      Bit depth : 24 bits
      Compression mode : Lossy
      Stream size : 1.75 GiB (9%)
      Title :   5.1 @ 1536 kbps
      Language : English
   Text #5
      ID : 5
      Format : UTF-8
      Codec ID : S_TEXT/UTF8
      Codec ID/Info : UTF-8 Plain Text
      Title : SDH
      Language : English
   Text #6
      ID : 6
      Format : UTF-8
      Codec ID : S_TEXT/UTF8
      Codec ID/Info : UTF-8 Plain Text
      Title : Full
      Language : English
Світлини






Джерело: &
Особиста оцінка: 8 - мені сподобалося
За українську доріжку 5.1 подяка пану Konfucius
За українізований постер подяка пану thefir


Авторський реліз (завантажувати можна без реєстрації)
 Трекер:    Зареєстрований   

Завантажити / скачати фільм українською



відео для новачків



 Зареєстрований:   2012-07-31 08:15
 Розмір:   19.12 GB 
 Оцінка фільму:   8.3/10 (Голосів: 6)
   
ratbol 
Модератор HD


З нами з: 03.02.09
Востаннє: 01.12.16
Повідомлень: 1088

2012-07-31 19:13  
Дякую за реліз.
П.С. На мою думку, доріжка 448 кб тут зайва.

11FrYkT 
Модератор відео


З нами з: 20.02.11
Востаннє: 04.12.16
Повідомлень: 3079

2012-07-31 19:23  
ratbol , будь ласка.

Цитата:
П.С. На мою думку, доріжка 448 кб тут зайва.

можливо і так, але добавляв її тому що в кожного різні смаки і вподобання, тому вирішив зробити універсальні роздачу, тим більше що вона важить мало і при необхідності її можна прибрати.

Надалі напевно буду робити тільки з ДТС, так як Ви вже другий хто мені це каже, врахую .

ratbol 
Модератор HD


З нами з: 03.02.09
Востаннє: 01.12.16
Повідомлень: 1088

2012-07-31 19:57  
11FrYkT
Так, всім не вгодиш, з цим я згідний, але грубо кажучи, тут просто дві одинакові доріжки у гіршій та у кращій якості, звичайно, що вибір буде на користь кращої, це ж ХД як не як) От як би звук був з тб і було два варіанти: 5.1 і 2.0, отоді був би сенс добавляти обидві.

11FrYkT 
Модератор відео


З нами з: 20.02.11
Востаннє: 04.12.16
Повідомлень: 3079

2012-07-31 20:29  
ratbol , згідний. Далі буду враховувати поради і побажання
ratbol 
Модератор HD


З нами з: 03.02.09
Востаннє: 01.12.16
Повідомлень: 1088

2012-08-05 11:27  
Фільм дуже сподобався. Приємна музика і якийсь піднесений настрій під час перегляду.
Дякую всім, хто допоміг аби цей фільм можна було було подивитись на рідній мові.

Дмитро митро 
Відео Гуртом - дизайнер
Відео Гуртом - дизайнер


З нами з: 18.02.09
Востаннє: 01.12.16
Повідомлень: 711

2012-08-27 22:06  
Вкажіть подяку за постер пану "thefir".
Alex-Rus 
Частий відвідувач


З нами з: 20.08.12
Востаннє: 19.06.14
Повідомлень: 47

2012-09-09 06:18  
Як я розумію, це обрізаний від (зайвих!) "чорних рамок" зі вдвічі зменшеним відеопотоком варіант з оригіналу http://toloka.to/t38440?

Тобто фактично (майже) те саме, до того ж компактніше (сподіваюсь, було pass=3 задля якості)??? Якщо так, напевно, нема сенсу качати оцей вказаний вище майже вдвічі більший оригінал.

NB: Та й непогано було б до цього ж qcomp=0.80, me=tesa та взагалі deblock=off чито deblock=0:0:0, ще й fastfistpass=off чи як там його... Wink (1)

poolvetrum 
Поважний учасник


З нами з: 01.06.14
Востаннє: 04.12.16
Повідомлень: 205

2015-09-07 23:27  
Прошу під'єднатись до роздачі у кого є можливість. Третю добу сідер не віддає.
Ваш часовий пояс: GMT + 2 Години

Нова тема   Відповісти