Завантажити та скачати торренти українською


Одного разу на Дикому Заході / C'era una volta il West / Once Upon a Time in the West (1968) Remux 1080p Ukr/Eng | Sub Eng

Нові коментарі

Нова тема   Відповісти
Автор Повідомлення
11FrYkT 
Модератор відео


З нами з: 20.02.11
Востаннє: 07.12.16
Повідомлень: 3127

2012-07-30 18:47  
Одного разу на Дикому Заході / C'era una volta il West / Once Upon a Time in the West (1968) Remux 1080p Ukr/Eng | Sub Eng

Одного разу на Дикому Заході / C'era una volta il West / Once Upon a Time in the West (1968) Remux 1080p Ukr/Eng | Sub Eng

«There were three men in her life. One to take her... one to love her... and one to kill her.»



Жанр: вестерн
Країна: США, Італія

Top 250 #22

Кіностудія / кінокомпанія: Finanzia San Marco, Rafran Cinematografica, Paramount Pictures
Режисер: Серджіо Леоне
Актори: Генрі Фонда, Клаудіа Кардінале, Джейсон Робардс, Чарльз Бронсон, Габліеле Ферцетті, Паоло Стоппа

Сюжет:
Будівництво залізниці на Дикому Заході несе не тільки прогрес, але і великі гроші. Залізничний магнат заради досягнення мети не зупиняється ні перед чим, навіть перед вбивством молодої вдови, через чию ферму повинні прокладати рейки. Але на Дикому Заході не все продається і не все купується. На її захист стають справжні герої, для яких є тільки два слова - честь і револьвер.


Тривалість: 02:46:01
Якість: Remux 1080p
Відео:
кодек:
розмір кадру: 1920 x 1080
бітрейт: 25,6 Mб/с

Аудіо # 1:
мова: українська
переклад: багатоголосий закадровий
кодек: 5.1
бітрейт: 1536 кб/с

Аудіо # 2:
мова: українська
переклад: багатоголосий закадровий
кодек: 5.1
бітрейт: 448 кб/с

Аудіо # 3:
мова: англійська
переклад: оригінал
кодек: 5.1
бітрейт: 1536 кб/с

Аудіо # 4:
мова: англійська
переклад: оригінал
кодек: 2.0
бітрейт: 224 кб/с |Commentary|

Джерело озвучення:
ТО "Цікава ідея" на замовлення Hurtom.com

Субтитри(SDH):
мова: англійська
тип: програмні (м'які)
формат: *.srt

Субтитри(Full):
мова: англійська
тип: програмні (м'які)
формат: *.srt
MediaInfo
Код:
Once Upon a Time in the West (1968) Remux 1080p.mkv
   General
      UniqueID : 238021249091810417190441053384040747419 (0xB31139A0539085E59BC2576D4B93919B)
      Complete name : Once Upon a Time in the West (1968) Remux 1080p.mkv
      Format : Matroska
      File size : 34.7 GiB
      Duration : 2h 46mn
      Overall bit rate : 29.9 Mbps
      Movie name : Once Upon a Time in the West (1968) Remux 1080p
      Encoded date : UTC 2012-07-30 16:15:02
      Writing application : mkvmerge v4.9.1 ('Ich will') зібрано Jul 11 2011 23:53:15
      Writing library : libebml v1.2.1 + libmatroska v1.1.1
      Cover : Yes
   Video #1
      ID : 1
      Format : AVC
      Format/Info : Advanced Video Codec
      Format profile : [email protected]
      Format settings, CABAC : Yes
      Format settings, ReFrames : 2 frames
      Codec ID : V_MPEG4/ISO/AVC
      Duration : 2h 46mn
      Bit rate mode : Variable
      Width : 1 920 pixels
      Height : 1 080 pixels
      Display aspect ratio : 16:9
      Frame rate : 23.976 fps
      Color space : YUV
      Chroma subsampling : 4:2:0
      Bit depth : 8 bits
      Scan type : Progressive
      Title : Once Upon a Time in the West (1968) Remux 1080p
      Language : English
   Audio #2
      ID : 2
      Format :
      Format/Info : Digital Theater Systems
      Codec ID : A_DTS
      Duration : 2h 46mn
      Bit rate mode : Constant
      Bit rate : 1 510 Kbps
      Channel(s) : 6 channels
      Channel positions : Front: L C R, Side: L R, LFE
      Sampling rate : 48.0 KHz
      Bit depth : 24 bits
      Compression mode : Lossy
      Stream size : 1.75 GiB (5%)
      Title : Багатоголосий закадровий 5.1 @ 1536 kb/s
      Language : Ukrainian
   Audio #3
      ID : 3
      Format : AC-3
      Format/Info : Audio Coding 3
      Mode extension : CM (complete main)
      Codec ID : A_AC3
      Duration : 2h 46mn
      Bit rate mode : Constant
      Bit rate : 448 Kbps
      Channel(s) : 6 channels
      Channel positions : Front: L C R, Side: L R, LFE
      Sampling rate : 48.0 KHz
      Bit depth : 16 bits
      Compression mode : Lossy
      Stream size : 532 MiB (1%)
      Title : Багатоголосий закадровий АС3 5.1 @ 448 kb/s
      Language : Ukrainian
   Audio #4
      ID : 4
      Format :
      Format/Info : Digital Theater Systems
      Format profile : MA
      Codec ID : A_DTS
      Duration : 2h 46mn
      Bit rate mode : Variable
      Channel(s) : 6 channels
      Channel positions : Front: L C R, Side: L R, LFE
      Sampling rate : 48.0 KHz
      Bit depth : 24 bits
      Compression mode : Lossy
      Title : Original 5.1 @ 1536 kb/s
      Language : English
   Audio #5
      ID : 5
      Format : AC-3
      Format/Info : Audio Coding 3
      Mode extension : CM (complete main)
      Codec ID : A_AC3
      Duration : 2h 46mn
      Bit rate mode : Constant
      Bit rate : 224 Kbps
      Channel(s) : 2 channels
      Channel positions : Front: L R
      Sampling rate : 48.0 KHz
      Bit depth : 16 bits
      Compression mode : Lossy
      Stream size : 266 MiB (1%)
      Title : Comments 2.0 @ 224 kb/s
      Language : English
   Text #6
      ID : 6
      Format : UTF-8
      Codec ID : S_TEXT/UTF8
      Codec ID/Info : UTF-8 Plain Text
      Title : SDH
      Language : English
   Text #7
      ID : 7
      Format : UTF-8
      Codec ID : S_TEXT/UTF8
      Codec ID/Info : UTF-8 Plain Text
      Title : Full
      Language : English
Світлини










Джерело: &
Особиста оцінка: 8 - мені сподобалося
За українську доріжку 5.1 подяка пану Konfucius


Авторський реліз (завантажувати можна без реєстрації)
 Трекер:    Зареєстрований   

Завантажити / скачати фільм українською



відео для новачків



 Зареєстрований:   2012-07-30 18:47
 Розмір:   34.65 GB 
 Оцінка фільму:   8/10 (Голосів: 5)
   
DiGen 
Модератор HD та координатор Команди HD
Модератор HD та координатор Команди HD


З нами з: 12.11.09
Востаннє: 24.06.13
Повідомлень: 1452

2012-07-30 19:53  
А для чого одну і ту ж доріжку в різній якості...?
11FrYkT 
Модератор відео


З нами з: 20.02.11
Востаннє: 07.12.16
Повідомлень: 3127

2012-07-30 19:56  
DiGen , мало яка кому до вподоби, а так як АС3 займає не багато вирішив додати.
Alex-Rus 
Частий відвідувач


З нами з: 20.08.12
Востаннє: 19.06.14
Повідомлень: 47

2012-09-09 05:36  
Ще одна класика "спагеті-вестерну" від Леоне з музичкою Моріконе (до трилогії http://toloka.to/posting.php?t=18792 саме те, що треба)!

Цей шедевр неодмінно закачаю до купи, якщо вистачить рейтингу, звісно... Wink (1)

Ваш часовий пояс: GMT + 2 Години

Нова тема   Відповісти