Завантажити та скачати торренти українською


Жінка в чорному / The Woman in Black (2012) 720р Ukr/Eng | Sub Eng

Нові коментарі

Нова тема   Відповісти
Автор Повідомлення
11FrYkT 
Модератор відео


З нами з: 20.02.11
Востаннє: 08.12.16
Повідомлень: 3128

2012-07-29 17:29  
Жінка в чорному / The Woman in Black (2012) 720р Ukr/Eng | Sub Eng

Жінка в чорному / The Woman in Black (2012) 720р Ukr/Eng | Sub Eng

«Тільки не дивися на неї»



Жанр: жахи, трилер, драма
Країна: Швеція, Канада, Велика Британія



Кіностудія / кінокомпанія: Hammer Film Productions, Alliance Films, UK Film Council
Режисер: Джеймс Уоткінс
Актори: Деніел Редкліфф, Кірен Хайдз, Джанет МакТір, Девід Бурк, Шон Дулі, Емма Шорі, Моллі Хермон, Ellisa Walker -Reid, Софі Стакі, Михайло Хендлі, Джессіка Рейн, Роджер Аллам.

Сюжет:
На дворі - кінець дев'ятнадцятого століття, але, хоча люди користуються автомобілями, залізницями і телеграфом, людина як і раніше безсила перед проявами надприродного. Молодий лондонський юрист Артур Кіппс змушений залишити свого 4-річного сина і відправитися у відрядження до усамітненого північного села, щоб скласти реєстр документів, що залишилися від померлого господаря маєтку Іл Марш. Діставшись до місця і поспілкувавшись з негостинними місцевими жителями, він починає розуміти, що над селом нависла тінь похмурої таємниці. Коли ж поруч зі старим кладовищем йому на очі потрапляє загадкова жінка, одягнена в чорне, це малозначна пригода знаменує початок низки жахливих смертей в сім'ях мешканців села.


Тривалість: 01:35:20
Якість: 720p
Відео:
кодек:
розмір кадру: 1280 x 544
бітрейт: 4500 кб/с

Аудіо # 1:
мова: українська
переклад: одноголосий закадровий
кодек: 2.0
бітрейт: 192 кб/с

Аудіо # 2:
мова: англійська
переклад: оригінал
кодек: 5.1
бітрейт: 1536 кб/с

Джерело озвучення:
shevron

Субтитри:
мова: англійська
тип: програмні (м'які)
формат: *.pgs
MediaInfo
Код:
The Woman in Black (2012) 720р.mkv
   General
      UniqueID : 175502959647552976366293048387121620306 (0x8408A3F9DD542B4395FC5191EB5AA552)
      Complete name : The Woman in Black (2012) 720р.mkv
      Format : Matroska
      File size : 4.13 GiB
      Duration : 1h 35mn
      Overall bit rate : 6 203 Kbps
      Encoded date : UTC 2012-07-29 15:04:06
      Writing application : mkvmerge v4.9.1 ('Ich will') зібрано Jul 11 2011 23:53:15
      Writing library : libebml v1.2.1 + libmatroska v1.1.1
   Video #1
      ID : 1
      Format : AVC
      Format/Info : Advanced Video Codec
      Format profile : [email protected]
      Format settings, CABAC : Yes
      Format settings, ReFrames : 12 frames
      Codec ID : V_MPEG4/ISO/AVC
      Duration : 1h 35mn
      Bit rate : 4 500 Kbps
      Width : 1 280 pixels
      Height : 544 pixels
      Display aspect ratio : 2.35:1
      Frame rate : 23.976 fps
      Color space : YUV
      Chroma subsampling : 4:2:0
      Bit depth : 8 bits
      Scan type : Progressive
      Bits/(Pixel*Frame) : 0.270
      Stream size : 2.92 GiB (71%)
      Writing library : core 124 r2197 69a0443
      Encoding settings : cabac=1 / ref=12 / deblock=1:-3:-3 / analyse=0x3:0x133 / me=umh / subme=10 / psy=1 / psy_rd=1.10:0.00 / mixed_ref=1 / me_range=32 / chroma_me=1 / trellis=2 / 8x8dct=1 / cqm=0 / deadzone=21,11 / fast_pskip=0 / chroma_qp_offset=-2 / threads=18 / sliced_threads=0 / nr=0 / decimate=0 / interlaced=0 / bluray_compat=0 / constrained_intra=0 / bframes=8 / b_pyramid=2 / b_adapt=2 / b_bias=0 / direct=3 / weightb=1 / open_gop=0 / weightp=2 / keyint=240 / keyint_min=24 / scenecut=40 / intra_refresh=0 / rc_lookahead=240 / rc=2pass / mbtree=1 / bitrate=4500 / ratetol=1.0 / qcomp=0.70 / qpmin=0 / qpmax=69 / qpstep=4 / cplxblur=20.0 / qblur=0.5 / ip_ratio=1.40 / aq=1:1.10
      Language : English
   Audio #2
      ID : 2
      Format : AC-3
      Format/Info : Audio Coding 3
      Mode extension : CM (complete main)
      Codec ID : A_AC3
      Duration : 1h 35mn
      Bit rate mode : Constant
      Bit rate : 192 Kbps
      Channel(s) : 2 channels
      Channel positions : Front: L R
      Sampling rate : 48.0 KHz
      Bit depth : 16 bits
      Compression mode : Lossy
      Stream size : 131 MiB (3%)
      Language : Ukrainian
   Audio #3
      ID : 3
      Format :
      Format/Info : Digital Theater Systems
      Codec ID : A_DTS
      Duration : 1h 35mn
      Bit rate mode : Constant
      Bit rate : 1 510 Kbps
      Channel(s) : 6 channels
      Channel positions : Front: L C R, Side: L R, LFE
      Sampling rate : 48.0 KHz
      Bit depth : 16 bits
      Compression mode : Lossy
      Stream size : 1.01 GiB (24%)
      Language : English
   Text #4
      ID : 4
      Format : PGS
      Muxing mode : zlib
      Codec ID : S_HDMV/PGS
      Codec ID/Info : The same subtitle format used on BDs/HD-DVDs
      Language : English
Світлини








Джерело: &
Особиста оцінка: 8 - мені сподобалося


Золотий реліз (завантажене не впливає на рейтинг)
 Трекер:    Зареєстрований   

Завантажити / скачати фільм українською



відео для новачків



 Зареєстрований:   2012-07-29 17:29
 Розмір:   4.13 GB 
 Оцінка фільму:   9.4/10 (Голосів: 17)
   
Інші релізи
   Жінка в чорному / The Woman in Black (2012) shevron  8 / 0   1.41 GB   2012-07-27 19:54 
   Жінка в чорному / The Woman in Black (2012) DVDScr Eng | sub Ukr newera  0 / 2   1.07 GB   2012-02-29 14:55 
Rami 
Частий відвідувач


З нами з: 16.06.10
Востаннє: 06.12.16
Повідомлень: 29

2012-07-29 21:15  
ох, круто))
oleg.illegal 
Частий відвідувач


З нами з: 04.03.11
Востаннє: 04.12.16
Повідомлень: 41

2012-07-30 08:56  
дякуємо!)))
11FrYkT 
Модератор відео


З нами з: 20.02.11
Востаннє: 08.12.16
Повідомлень: 3128

2012-07-30 09:01  
oleg.illegal , будь ласка
tan-ok 
Новенький


З нами з: 18.02.12
Востаннє: 08.12.16
Повідомлень: 4

2012-08-02 18:01  
Не підкажете коли буде професійний дубльований переклад!??
shevron 
Свій


З нами з: 23.10.11
Востаннє: 05.12.16
Повідомлень: 62

2012-08-02 18:24  
tan-ok в кінотеатрах фільм йшов не в дубляжі, а в багатоголосці...
tan-ok 
Новенький


З нами з: 18.02.12
Востаннє: 08.12.16
Повідомлень: 4

2012-08-06 12:25  
shevron дякую за відповідь, значить будемо дивитись в одноголосці..
LenaKovtun 
Новенький


З нами з: 23.03.12
Востаннє: 28.11.16
Повідомлень: 16

2012-08-06 15:10  
А укр дубляж буде? або багатогоска?
Ваш часовий пояс: GMT + 2 Години

Нова тема   Відповісти