Завантажити та скачати торренти українською


Замочити бабцю / The Ladykillers (2004) 720p Ukr/Eng | Sub Eng

Нові коментарі

Нова тема   Відповісти
Автор Повідомлення
aalleexx85 
Відео Гуртом - фільмокрай
Відео Гуртом - фільмокрай


З нами з: 27.07.10
Востаннє: 09.12.16
Повідомлень: 1139

2012-07-28 19:27  
Замочити бабцю / The Ladykillers (2004) 720p Ukr/Eng | Sub Eng

Замочити бабцю / The Ladykillers (2004) 720p Ukr/Eng | Sub Eng


"The greatest criminal minds of all time
have finally met their match."

Жанр: чорна комедія, кримінальний, трилер
Країна: USA



Кіностудія / кінокомпанія: Touchstone Pictures, Jacobson Company, The, Mike Zoss Productions
Режисер: Ітан Коен, Джоель Коен (Ethan Coen, Joel Coen)
Актори: Том Генкс (Tom Hanks), Ірма Гелл (Irma P. Hall), Марлон Ваянс (Marlon Wayans), Джей К. Сіммонс (J.K. Simmons), Тзі Ма (Tzi Ma), Раян Герст (Ryan Hurst), Джордж Воллас (George Wallace)

Сюжет:
Голдтуейт Хіггінсон Дорр, дивний професор з південних штатів, розробляє план пограбування казино, що базується на річковому кораблі. Він збирає команду злодіїв, винаймає для них кімнату в будинку, власницею якого є одна стара дама, місіс Мансон.


Тривалість: 01:44:20
Якість: 720p
Відео:
кодек:
розмір кадру: 1280x688
бітрейт: 4196 кб/с

Аудіо # 1:
мова: українська
переклад: двоголосий закадровий
кодек: 5.1
бітрейт: 384 кб/с

Аудіо # 2:
мова: англійська
переклад: оригінал
кодек: 5.1
бітрейт: 384 кб/с

Переклад виконано і озвучено студією:

Цитата:
Переклад: Ганни Ведмідь
Літературний редактор: Валентина Левицька
Звукорежисер: Олена Мойжис
Режисер: Ольга Чернілевська
Текст читали актори: Ніна Касторф та Олександр Завальський


Субтитри:
мова: англійська
тип: програмні (м'які)
формат: *.srt
MediaInfo:
General
Unique ID : 209387565820924278060420023940373414468 (0x9D86940B72C38B9FA2E2BF7CDC4E0244)
Complete name : G:\Video\Comedy\The Ladykillers (2004) 720p [ukr, eng] [Hurtom].mkv
Format : Matroska
Format version : Version 2
File size : 3.69 GiB
Duration : 1h 44mn
Overall bit rate : 5 065 Kbps
Movie name : The Ladykillers (2004) 720p [ukr, eng] [Hurtom]
Encoded date : UTC 2014-03-09 18:31:51
Writing application : mkvmerge v4.9.1 ('Ich will') зібрано Jul 11 2011 23:53:15
Writing library : libebml v1.2.1 + libmatroska v1.1.1

Video
ID : 1
Format : AVC
Format/Info : Advanced Video Codec
Format profile : [email protected]
Format settings, CABAC : No
Format settings, ReFrames : 2 frames
Codec ID : V_MPEG4/ISO/AVC
Duration : 1h 44mn
Bit rate : 4 196 Kbps
Width : 1 280 pixels
Height : 688 pixels
Display aspect ratio : 1.860
Frame rate : 23.976 fps
Color space : YUV
Chroma subsampling : 4:2:0
Bit depth : 8 bits
Scan type : Progressive
Bits/(Pixel*Frame) : 0.199
Stream size : 3.06 GiB (83%)
Title : The Ladykillers (2004) 720p [ukr, eng] [Hurtom]
Language : English
Default : Yes
Forced : No
Color primaries : BT.709-5, BT.1361, IEC 61966-2-4, SMPTE RP177
Transfer characteristics : BT.709-5, BT.1361
Matrix coefficients : BT.709-5, BT.1361, IEC 61966-2-4 709, SMPTE RP177

Audio #1
ID : 2
Format : AC-3
Format/Info : Audio Coding 3
Mode extension : CM (complete main)
Codec ID : A_AC3
Duration : 1h 44mn
Bit rate mode : Constant
Bit rate : 384 Kbps
Channel(s) : 6 channels
Channel positions : Front: L C R, Side: L R, LFE
Sampling rate : 48.0 KHz
Bit depth : 16 bits
Compression mode : Lossy
Delay relative to video : 5s 100ms
Stream size : 287 MiB (8%)
Title : 1+1
Language : Ukrainian
Default : Yes
Forced : No

Audio #2
ID : 3
Format : AC-3
Format/Info : Audio Coding 3
Mode extension : CM (complete main)
Codec ID : A_AC3
Duration : 1h 44mn
Bit rate mode : Constant
Bit rate : 384 Kbps
Channel(s) : 6 channels
Channel positions : Front: L C R, Side: L R, LFE
Sampling rate : 48.0 KHz
Bit depth : 16 bits
Compression mode : Lossy
Stream size : 287 MiB (8%)
Title : Original
Language : English
Default : No
Forced : No

Text
ID : 4
Format : UTF-8
Codec ID : S_TEXT/UTF8
Codec ID/Info : UTF-8 Plain Text
Language : English
Default : Yes
Forced : No

Menu
00:00:00.000 : en:Opening Credits
00:12:04.000 : en:Members of the Ensemble
00:19:21.000 : en:Shine on Me
00:28:26.000 : en:Practicing Music
00:34:06.000 : en:The Bandit Queen
00:42:49.000 : en:A New Friend
00:49:38.000 : en:Bad Timing
00:56:03.000 : en:Trouble
01:05:26.000 : en:Entertaining the Ladies
01:15:18.000 : en:"A Middle Way"
01:23:38.000 : en:Dazzling Conversation
01:38:23.000 : en:End Credits
Скріншоти:




Джерело: &
Особиста оцінка: 10 - без зайвих вагань рекомендую всім!


Срібний реліз (на рейтинг впливає 50% завантаженого)
 Трекер:    Зареєстрований   

Завантажити / скачати фільм українською



відео для новачків



 Зареєстрований:   2014-03-09 21:17
 Розмір:   3.69 GB 
 Оцінка фільму:   9.5/10 (Голосів: 22)
   
Інші релізи
   Замочити бабцю / The Ladykillers (2004) Ukr/Eng robotron005  5 / 0   1.45 GB   2011-11-25 18:49 
braveboy 
Відео Гуртом - команда HD
Відео Гуртом - команда HD


З нами з: 15.06.10
Востаннє: 29.10.16
Повідомлень: 958

2012-07-28 20:27  
aalleexx85 написано:
бітрейт: 5910 кб/с


aalleexx85 написано:
MediaInfo
BitRate/String : 5 434 Kbps

K_u_r_a_m_a 
Новенький


З нами з: 01.04.12
Востаннє: 11.04.15
Повідомлень: 15

2012-07-29 09:50  
фільм казали дуже хороший... скачаю заціню Happy
aalleexx85 
Відео Гуртом - фільмокрай
Відео Гуртом - фільмокрай


З нами з: 27.07.10
Востаннє: 09.12.16
Повідомлень: 1139

2012-07-29 10:30  
K_u_r_a_m_a
та ти вже роздаєш, навіть не скачавши

K_u_r_a_m_a 
Новенький


З нами з: 01.04.12
Востаннє: 11.04.15
Повідомлень: 15

2012-07-29 11:27  
aalleexx85
торент мені друг скачав, тому фільм з його акка скачаний, зі свого роздаю бо рейт провтикав.... до речі подібні речі не можна робити, але виходу не було(

vic88888888 
Свій


З нами з: 11.11.10
Востаннє: 30.11.16
Повідомлень: 66

2012-07-29 11:38  
Так, дійсно, фільм гідний уваги. Кілька разів починав дивитись та коли додивився, особливо сцена із зубними протезами уночі, був задоволений. Тільки одне але... Здається переклад назви дещо не відповідає настрою фільму. Тонкий та навіть стриманий місьцями гумор, на мою думку, вимагає іншої назви. Можливо "Забави джентельменів" або щось подібне. А за реліз велике спасибі!
aalleexx85 
Відео Гуртом - фільмокрай
Відео Гуртом - фільмокрай


З нами з: 27.07.10
Востаннє: 09.12.16
Повідомлень: 1139

2012-07-29 11:56  
vic88888888 написано:
Забави джентельменів

якраз джентельменів у фільмі і нема, є тільки леді

vic88888888 
Свій


З нами з: 11.11.10
Востаннє: 30.11.16
Повідомлень: 66

2012-07-29 13:35  
Так, дійсно, якби все було так просто, то можна було б взагалі "замочити леді" або навіть убити. Та здається фільм комедійного жанру)
aalleexx85 
Відео Гуртом - фільмокрай
Відео Гуртом - фільмокрай


З нами з: 27.07.10
Востаннє: 09.12.16
Повідомлень: 1139

2014-03-09 21:09  
торрент оновлено
замінено відеоряд

vovafromz 
Новенький


З нами з: 15.08.09
Востаннє: 04.12.16
Повідомлень: 15

2014-03-10 12:40  
та ну його з такою швидкістю , скачав http://toloka.to/t30167 Wide grin [/spoiler]
Genek 
Свій


З нами з: 16.10.10
Востаннє: 09.12.16
Повідомлень: 69

2014-03-10 12:55  
Фільм класний, комедія, місцями чорновата, дивитись однозначно.
K2 
Поважний учасник


З нами з: 02.11.08
Востаннє: 08.12.16
Повідомлень: 158

2014-03-10 15:05  
"Замочити бабцю")) звучить дуже дотепно, клас)
kino. 
Модератор відео


З нами з: 27.06.10
Востаннє: 09.12.16
Повідомлень: 2900

2014-03-10 15:25  
aalleexx85 написано:
Якість:

виправте на

hellforces 
VIP


З нами з: 25.06.08
Востаннє: 11.11.16
Повідомлень: 1556

2014-03-10 15:51  
або буде??
aalleexx85 
Відео Гуртом - фільмокрай
Відео Гуртом - фільмокрай


З нами з: 27.07.10
Востаннє: 09.12.16
Повідомлень: 1139

2014-03-10 16:33  
hellforces написано:
або буде??

не буде бо нема

hellforces 
VIP


З нами з: 25.06.08
Востаннє: 11.11.16
Повідомлень: 1556

2014-03-10 23:04  
а звичайний ?
kotpein 
Новенький


З нами з: 17.01.10
Востаннє: 28.08.16
Повідомлень: 2

2014-11-10 23:02  
Хлопці, файл "битий", місцями зависає, запускав у різних плеєрах, Pot player висне після кількох хвилин перегляду, треба щось пофіксити.
gosha.samovar 
VIP


З нами з: 08.09.10
Востаннє: 09.12.16
Повідомлень: 400

2016-01-23 00:28  
kotpein
У мене також.

Ваш часовий пояс: GMT + 2 Години

Нова тема   Відповісти