Завантажити та скачати торренти українською


Platina - Зайві слова (2006) [FLAC] | Pop-Rock

Нові коментарі

Нова тема   Відповісти
Останній раз роздавалося Myfordownloads (2016-10-09)
Автор Повідомлення
Fritz 
Частий відвідувач


З нами з: 27.04.09
Востаннє: 31.05.15
Повідомлень: 32

2012-07-28 10:30  
Platina - Зайві слова (2006) [FLAC] | Pop-Rock

Platina - Зайві слова (2006) [FLAC] | Pop-Rock


Стиль: Pop-Rock
Країна, місто: Україна, Київ
Сайти: Офіційний сайт
Видавець: "Lavina Music"
Виконавці:
Вікторія Васалаті - вокал
Микола Кістеньов - бас
Юрій Кондратюк - гітара
Сергій Рожков - клавіші
Олександр Муренко - барабани
Пісні:

    01. Відлітай
    02. Знаю
    03. Зайві слова
    04. Завтра
    05. Білет-кіно
    06. Безсоння
    07. Добра я
    08. Ти
    09. Я тебе не хочу
    10. За тобою
    11. Присмак
    12. Відео
    13. Злюка-розлука
    14. Тільки ти один

Тривалість: 00:49:23
Мова: українська
Ріп: Tracks, Test&Copy
Аудіо-кодек: FLAC
Бітрейт: 938 Kbps
Джерело: Інше
Додаткова інформація:
"EAC"

Exact Audio Copy V0.99 prebeta 5 from 4. May 2009

EAC extraction logfile from 28. July 2012, 5:51

Platina / Зайві слова

Used drive : ASUS DRW-1814BLT Adapter: 0 ID: 0

Read mode : Secure
Utilize accurate stream : Yes
Defeat audio cache : Yes
Make use of C2 pointers : No

Read offset correction : 6
Overread into Lead-In and Lead-Out : No
Fill up missing offset samples with silence : Yes
Delete leading and trailing silent blocks : No
Null samples used in CRC calculations : Yes
Used interface : Native Win32 interface for Win NT & 2000
Gap handling : Appended to previous track

Used output format : User Defined Encoder
Selected bitrate : 320 kBit/s
Quality : High
Add ID3 tag : No
Command line compressor : C:\Program Files (x86)\Exact Audio Copy\Flac\flac.exe
Additional command line options : -8 -V -T "ARTIST=%a" -T "TITLE=%t" -T "ALBUM=%g" -T "DATE=%y" -T "TRACKNUMBER=%n" -T "GENRE=%m" -T "COMMENT=EAC FLAC -8" %s

TOC of the extracted CD

Track | Start | Length | Start sector | End sector
---------------------------------------------------------
1 | 0:00.00 | 3:47.54 | 0 | 17078
2 | 3:47.54 | 3:37.13 | 17079 | 33366
3 | 7:24.67 | 3:55.46 | 33367 | 51037
4 | 11:20.38 | 4:02.24 | 51038 | 69211
5 | 15:22.62 | 3:28.29 | 69212 | 84840
6 | 18:51.16 | 3:37.74 | 84841 | 101189
7 | 22:29.15 | 3:51.43 | 101190 | 118557
8 | 26:20.58 | 2:31.41 | 118558 | 129923
9 | 28:52.24 | 3:01.03 | 129924 | 143501
10 | 31:53.27 | 3:39.73 | 143502 | 159999
11 | 35:33.25 | 3:06.66 | 160000 | 174015
12 | 38:40.16 | 2:44.61 | 174016 | 186376
13 | 41:25.02 | 3:48.73 | 186377 | 203549
14 | 45:14.00 | 4:08.08 | 203550 | 222157

Track 1

Filename C:\Users\Serhio\Desktop\Platina - Зайві слова (2006)\01. Platina – Відлітай.wav

Pre-gap length 0:00:02.00

Peak level 94.7 %
Track quality 100.0 %
Test CRC 42B4590C
Copy CRC 42B4590C
Track not present in AccurateRip database
Copy OK

Track 2

Filename C:\Users\Serhio\Desktop\Platina - Зайві слова (2006)\02. Platina – Знаю.wav

Peak level 94.7 %
Track quality 99.9 %
Test CRC 60D030A4
Copy CRC 60D030A4
Track not present in AccurateRip database
Copy OK

Track 3

Filename C:\Users\Serhio\Desktop\Platina - Зайві слова (2006)\03. Platina – Зайві слова.wav

Peak level 94.7 %
Track quality 100.0 %
Test CRC B8FCB006
Copy CRC B8FCB006
Track not present in AccurateRip database
Copy OK

Track 4

Filename C:\Users\Serhio\Desktop\Platina - Зайві слова (2006)\04. Platina – Завтра.wav

Peak level 94.7 %
Track quality 100.0 %
Test CRC 082CCE92
Copy CRC 082CCE92
Track not present in AccurateRip database
Copy OK

Track 5

Filename C:\Users\Serhio\Desktop\Platina - Зайві слова (2006)\05. Platina – Білет-кіно.wav

Peak level 94.7 %
Track quality 100.0 %
Test CRC E2758752
Copy CRC E2758752
Track not present in AccurateRip database
Copy OK

Track 6

Filename C:\Users\Serhio\Desktop\Platina - Зайві слова (2006)\06. Platina – Безсоння.wav

Peak level 94.7 %
Track quality 100.0 %
Test CRC C15A5198
Copy CRC C15A5198
Track not present in AccurateRip database
Copy OK

Track 7

Filename C:\Users\Serhio\Desktop\Platina - Зайві слова (2006)\07. Platina – Добрая.wav

Peak level 94.7 %
Track quality 100.0 %
Test CRC A2EE633B
Copy CRC A2EE633B
Track not present in AccurateRip database
Copy OK

Track 8

Filename C:\Users\Serhio\Desktop\Platina - Зайві слова (2006)\08. Platina – Ти.wav

Peak level 94.5 %
Track quality 100.0 %
Test CRC 82DC8218
Copy CRC 82DC8218
Track not present in AccurateRip database
Copy OK

Track 9

Filename C:\Users\Serhio\Desktop\Platina - Зайві слова (2006)\09. Platina – Я тебе не хочу.wav

Peak level 94.7 %
Track quality 100.0 %
Test CRC CA7EA608
Copy CRC CA7EA608
Track not present in AccurateRip database
Copy OK

Track 10

Filename C:\Users\Serhio\Desktop\Platina - Зайві слова (2006)\10. Platina – За тобою.wav

Peak level 94.7 %
Track quality 100.0 %
Test CRC 5D563C2A
Copy CRC 5D563C2A
Track not present in AccurateRip database
Copy OK

Track 11

Filename C:\Users\Serhio\Desktop\Platina - Зайві слова (2006)\11. Platina – Присмак.wav

Peak level 94.7 %
Track quality 100.0 %
Test CRC D800CC9A
Copy CRC D800CC9A
Track not present in AccurateRip database
Copy OK

Track 12

Filename C:\Users\Serhio\Desktop\Platina - Зайві слова (2006)\12. Platina – Відео.wav

Peak level 94.7 %
Track quality 100.0 %
Test CRC 0A865F69
Copy CRC 0A865F69
Track not present in AccurateRip database
Copy OK

Track 13

Filename C:\Users\Serhio\Desktop\Platina - Зайві слова (2006)\13. Platina – Злюка-розлука.wav

Peak level 94.7 %
Track quality 100.0 %
Test CRC A6EF4985
Copy CRC A6EF4985
Track not present in AccurateRip database
Copy OK

Track 14

Filename C:\Users\Serhio\Desktop\Platina - Зайві слова (2006)\14. Platina – Тільки ти один.wav

Peak level 94.7 %
Track quality 100.0 %
Test CRC D8659ECB
Copy CRC D8659ECB
Track not present in AccurateRip database
Copy OK

None of the tracks are present in the AccurateRip database

No errors occurred

End of status report
"Спектр"


"Про виконавця:"

Антон Йожик Лейба:
Цікавий, одначе, рух почався останнім часом в українській музиці. Точніше, вийшов на поверхню – почався він, звичайно, раніше. А проявляється він у виникненні цілої нової формації гуртів. Вони грають музику, яка балансує між роком та попом – набір додаткових інгредієнтів, зазвичай, у кожного гурту свій. Вони співають романтичні пісні – і при цьому намагаються писати осмислені тексти, а не просто набори римованих фраз. Часто виходить непогано. Це не завжди є серйозною поезією – але містить власні думки, власні шифри і цікаві знахідки. Ну і останнє – в цих гуртах співають дівчата. Причому, як правило, саме співають, а не просто озвучують тексти. Дуже правильна тенденція. Із поп-роком у чоловічому виконанні якось у нас в країні поки-що склалося не дуже, хоча ситуація все-ж не безнадійна. Ну а зараз Вашій увазі – один з дебютів згаданого руху, перший альбом гурту "Platina", чию пісню "Білет-кіно" чула, мабуть, вся країна. Музика гурту не важка, але тяжіє до рок-звучання. Із додаткових спецій найбільше тут відчутний вплив хард-року 70-80-х років – але гурт вдало сполучає це із сучасними фарбами. До того ж, кілька пісень відступають від загального напрямку – альбом не виглядає одноманітним. Окремо можна відзначити вокалістку, Вікторію Васалатій. Голос вона має живий, пластичний – і добре почувається в піснях різних стилів. За її інтонаціями цікаво слідкувати, вона вміє приємно здивувати. Отже – гурт можна привітати з гарним початком.

Про гурт:
У наш час тотального та всебічного розвитку культури мало хто з митців залишається осторонь. Найбільш яскравим елементом розвитку є музична сцена. Адже саме тут виконавці мають безмежну змогу поєднати професійні риси віртуозів з театральним початком. Одним з таких діамантів є Platina.
Група "PLATINA" офіційно була створена в 2003р. Але це не є випадковим чи спонтанним явищем на сучасній сцені. Появі такого творчого об’єднання сприяли довгі часи праці та натхнення, пошуків та експеріментів.
Ідея створення належить гітаристу Юрію Кондратюку. До складу групи увійшли досвідченні музиканти, які працювали з відомими українськими виконавцями (В. Павлік, Н. Могилевська, О. Пономарьов, Руслана).
Як виявилось пізніше- кожен музикант мріяв грати у власній групі,та йшов до своєї мети досить давно. Завдяки тому й склались такі дружні стосунки в колективі, бо кожен займає тут своє місце. Що таке PLATINA сьогодні? Це сузір’я з пяти елементів, п’яти особистостей.

Вікторія Васалаті - лідер групи, солістка, акустична гітара, поет, композитор, лауреат міжнародних всеукраїнських конкурсів, фестивалів. До знайомства з колективом працювала сольно.
Юрій Кондратюк - гітара, віртуозно володіє інструментом, забезпечує драйв та потужний саунд-гурту, композитор, аранжувальник, акумулятор настрою групи.
Сергій Рожков - клавішні, має вроджений талант втілювати безмежні фантазії через гру на інструменті, композитор, ідейний генератор.
Микола Кістеньов - бас-гітара, бек-вокал, віртуозно володіє не тільки грою на бас-гітарі, а й на баяні. Закінчив Київську Державну Консерваторію. Тихий омут інтелекту зі скритим полум’ям ритмічної напруги.
Олександр Капітонов - ударні, ритм, рівновага, незамінне серце групи.

Група закінчила роботу над власним першим україномовним альбомом, до якого увійшло чотирнадцять треків. У групи великі творчі плани на майбутнє, над здійсненням яких працює сьогодні колектив.
В колективі зібрались люди, які прагнуть досягнути серйозних результатів у спільній праці. Музика, професіоналізм та дружні стосунки - це саме те, що об’єднало та зробило їх однією творчою сім’єю.


У комплекті: Відскановані обкладинки та диск, лог ЕАС, файл CUE, плейлист M3U, спектрограми та аудіо.



Якщо Ви справді бажаєте підтримати українське - після прослуховування, якщо музика вам сподобалась, придбайте ліцензійний диск. Підтримаймо вітчизняних виконавців!


Срібний реліз (на рейтинг впливає 50% завантаженого)
 Трекер:    Зареєстрований   

Завантажити / скачати українську музику



відео для новачків



 Зареєстрований:   2012-07-28 10:30
 Розмір:   413 MB 
 Оцінка музики:   10/10 (Голосів: 10)
   
ninenine 
Відео Гуртом - фільмокрай
Відео Гуртом - фільмокрай


З нами з: 23.10.09
Востаннє: 05.12.16
Повідомлень: 1147

2013-12-13 11:53  
Будь ласка станьте на роздачу.

Не хватає кнопочки "покликати скачавших" а то й можна і не дочекатись ні одного сідера. Sad (2)

Bober83 
Новенький


З нами з: 23.04.11
Востаннє: 04.11.16
Повідомлень: 13

2014-01-07 13:31  
Приєднуюсь до прохання, встаньте будь ласка на роздачу! Вже третій місяць ні одного проценту не скачалось.
---------------------------------------------------------------------------------------------------------------------------------------------------
Дякую за розуміння, закачав. Залишаюсь на роздачі!
Звертаюсь до тих хто просто качае і не підтримає будь який реліз, залишайтесь на роздачі, якщо не ти то хто?

Ваш часовий пояс: GMT + 2 Години

Нова тема   Відповісти