Завантажити та скачати торренти українською


Вбий мене ніжно [Розширена версія] / Killing Me Softly (2002) 720p Ukr/Eng | Sub Ukr/Eng [Unrated]

Нові коментарі

Нова тема   Відповісти
Автор Повідомлення
urij546724 
Відео Гуртом - фільмокрай
Відео Гуртом - фільмокрай


З нами з: 16.03.10
Востаннє: 10.12.16
Повідомлень: 5222

2012-07-28 10:22  
Вбий мене ніжно [Розширена версія] / Killing Me Softly (2002) 720p Ukr/Eng | Sub Ukr/Eng [Unrated]


Слоган:
«Основний інстинкт сильніший за страх смерті»


Жанр: драма, містерія, романтичний, трилер
Країна: США (), Великобританія ()



Кіностудія / кінокомпанія: Metro-Goldwyn-Mayer (MGM), Montecito Picture Company, The, Noelle Entertainment Limited
Режисер: Чень Кайг (Chen Kaige)
Актори: Хезер Грем (Heather Graham), Джозеф Файнс (Joseph Fiennes), Наташа МакЕлхоун (Natascha McElhone), Ульріх Томсен (Ulrich Thomsen), Іен Харт (Ian Hart), Джейсон Хьюз (Jason Hughes), Кіка Марка (Kika Markham), Емі Роббінс (Amy Robbins)...
Усі актори та їх фото:
Хезер Грем (Heather Graham), Джозеф Файнс (Joseph Fiennes), Наташа МакЕлхоун (Natascha McElhone), Ульріх Томсен (Ulrich Thomsen), Іен Харт (Ian Hart), Джейсон Хьюз (Jason Hughes), Кіка Марка (Kika Markham), Емі Роббінс (Amy Robbins), Ясмін Баннерман (Yasmin Bannerman), Ребекка Р. Палмер (Rebecca R. Palmer), Ронан Вайберт (Ronan Vibert), Олівія Пуле (Olivia Poulet), Іен Еспіналл (Ian Aspinall), Хелен Грейс (Helen Grace), Олівер Раян (Oliver Ryan), Дональд Гі (Donald Gee), Тім Фарадей (Tim Faraday), Річард Грін (Richard Green), Лі Босвелл (Lee Boswell), Патрік Філд (Patrick Field), Рей Донн (Ray Donn), Джо Ганн (Joe Gunn), Ніл Робертс (Neil Roberts)



Сюжет:
Фатальна зустріч з чарівним і загадковим хлопцем змінила розмірене життя Еліс. Розлучившись з надійним другом, вона кидається в обійми Адама, розуміючи, що знайшла другу половину. І лише після весілля, вона усвідомлює, що нічого не знає про чоловіка.

Незабаром анонімні листи з погрозами, таємнича замкнена комора і дивна поведінка чоловіка змушують Еліс заглянути в його минуле. З цього моменту її життя перетворюється на жахіття, де страхітливі збіги і шокуючі відкриття говорять лише про одне: її чоловік насправді холоднокровний вбивця-маніяк.


Бюджет: 25 000 000 доларів
Назва фільму у інших країнах
Killing Me Softly
Австрія / Німеччина / Португалія


Feu de glace
Франція


Glyka, skotose me
Греція


Killing me softly - Uccidimi dolcemente
Італія


Mátame suavemente
Аргентина


Magassági mámor
Угорщина


Mata-me de Prazer
Бразилія


Pimeyden syli
Фінляндія


Suavemente me mata
Іспанія


Ubij me strastno
Словенія


Urok mordercy
Польща


Убей меня нежно
Росія
Рецензія з книги «3500 кінорецензій»:

Сергій Кудрявцев
4.5 / 10


Мелодраматичний трилер

Ця стрічка, назву якої краще було б перекласти як «Убивай мене ніжно", щоб підкреслити тривалий і досить болісний процес тихого і непомітного знищення почуттів у взаємовідносинах двох героїв, які начебто палко любили один одного, повинна сподобатися, перш за все, шанувальникам мелодраматичних трилерів на вже звичну тему «в ліжку з ворогом». Спочатку дійсно сприймаєш повідане як історію палкого кохання (між іншим, в картині були зроблені цензурні купюри заради отримання в США вікового рейтингу R, хоча в підсумку вона все одно вийшла там тільки на відео), яка переростає в страх і підозри молодої жінки Еліс, веб -дизайнера з Лондона, по відношенню до свого чоловіка-альпініста Адама. Але це настільки погано розіграно акторами і безлико поставлено відомим китайським режисером Чень Кайгом, який часом справляє незапланований комічний ефект. Ось і серед продюсерів фільму несподівано можна виявити ім'я популярного комедіографа Айвена Райтмена, який взагалі не був раніше причетним до створення кіноробіт кримінально-детективного плану.

2002
Media info
General
Unique ID : 211525813215724254082040963685041444792 (0x9F2263C7DB001AEC9AD119F1145E17B8)
Complete name : D:\Killing Me Softly (2002) [Unrated] [ukr.KIT(Babay)_eng_DTS_5.1_sub] 720p [Hurtom] by urij546724.mkv
Format : Matroska
Format version : Version 2
File size : 5.43 GiB
Duration : 1h 40mn
Overall bit rate : 7 747 Kbps
Movie name : Killing Me Softly (2002) [Unrated] [ukr.KIT(Babay)_eng_DTS_5.1_sub] 720p [Hurtom] by urij546724
Encoded date : UTC 2012-07-28 07:52:18
Writing application : mkvmerge v2.9.7 ('Tenderness') built on Jul 1 2009 18:43:35
Writing library : libebml v0.7.7 + libmatroska v0.8.1

Video
ID : 1
Format : AVC
Format/Info : Advanced Video Codec
Format profile : [email protected]
Format settings, CABAC : Yes
Format settings, ReFrames : 9 frames
Codec ID : V_MPEG4/ISO/AVC
Duration : 1h 40mn
Bit rate : 4 725 Kbps
Width : 1 280 pixels
Height : 688 pixels
Display aspect ratio : 1.85:1
Original display aspect ratio : 1.85:1
Frame rate : 29.970 fps
Color space : YUV
Chroma subsampling : 4:2:0
Bit depth : 8 bits
Scan type : Progressive
Bits/(Pixel*Frame) : 0.179
Stream size : 3.21 GiB (59%)
Title : Killing Me Softly (2002) [Unrated] [ukr.KIT(Babay)_eng_DTS_5.1_sub] 720p [Hurtom] by urij546724
Writing library : core 58 svn-736M
Encoding settings : cabac=1 / ref=9 / deblock=1:0:0 / analyse=0x3:0x113 / me=umh / subme=6 / me-prepass=0 / brdo=1 / mixed_ref=1 / me_range=16 / chroma_me=1 / trellis=1 / 8x8dct=1 / cqm=2 / deadzone=4,6 / chroma_qp_offset=0 / threads=6 / nr=0 / decimate=1 / mbaff=0 / bframes=5 / b_pyramid=1 / b_adapt=1 / b_bias=0 / direct=3 / wpredb=1 / bime=1 / keyint=250 / keyint_min=25 / scenecut=40(pre) / rc=2pass / bitrate=4725 / ratetol=1.0 / rceq='blurCplx^(1-qComp)' / qcomp=1.00 / qpmin=10 / qpmax=51 / qpstep=4 / cplxblur=20.0 / qblur=0.5 / ip_ratio=1.40 / pb_ratio=1.30 / aq=1:0.5:13.0
Language : English
Default : Yes
Forced : No

Audio #1
ID : 2
Format :
Format/Info : Digital Theater Systems
Codec ID : A_DTS
Duration : 1h 40mn
Bit rate mode : Constant
Bit rate : 1 510 Kbps
Channel(s) : 6 channels
Channel positions : Front: L C R, Side: L R, LFE
Sampling rate : 48.0 KHz
Bit depth : 24 bits
Compression mode : Lossy
Stream size : 1.06 GiB (19%)
Title : Українська доріжка
Language : Ukrainian
Default : Yes
Forced : No

Audio #2
ID : 3
Format :
Format/Info : Digital Theater Systems
Codec ID : A_DTS
Duration : 1h 40mn
Bit rate mode : Constant
Bit rate : 1 510 Kbps
Channel(s) : 6 channels
Channel positions : Front: L C R, Side: L R, LFE
Sampling rate : 48.0 KHz
Bit depth : 16 bits
Compression mode : Lossy
Delay relative to video : 11ms
Stream size : 1.06 GiB (19%)
Title : Англійська доріжка
Language : English
Default : No
Forced : No

Text #1
ID : 4
Format : UTF-8
Codec ID : S_TEXT/UTF8
Codec ID/Info : UTF-8 Plain Text
Title : Українські субтитри
Language : Ukrainian
Default : Yes
Forced : No

Text #2
ID : 5
Format : UTF-8
Codec ID : S_TEXT/UTF8
Codec ID/Info : UTF-8 Plain Text
Title : Англійські субтитри
Language : English
Default : No
Forced : No


Тривалість: 01:40:21
Якість: 720p
Відео:
кодек:
розмір кадру: 1280 х 688
бітрейт: ~ 4725 кб/с
частота кадрів: 23.976 к/с (fps)

Аудіо #1:
мова: українська
переклад: двоголосий закадровий (Юлія Перенчук і Павло Скороходько)
кодек: 5.1
бітрейт: 1510 кб/с
озвучено: компанія "Кіт"
запис звуку з каналу: . Також з цією озвучкою показували на 1+1.

Аудіо #2:
мова: англійська
переклад: оригінал
кодек: 5.1
бітрейт: 1510 кб/с

Субтитри #1:
мова: українська
тип: програмні (м'які)
формат: *.srt
переклад: з російської urij546724

Субтитри #2:
мова: англійська
тип: програмні (м'які)
формат: *.srt

Скріншоти:





Трейлери:

Семпл
Джерело 1_________Джерело 2_________Джерело 3_________Джерело 4_________Джерело 5_________Джерело 6_________Джерело 7
У випадку, якщо з усіх джерел семпл видалять, прохання повідомити мені у ПРИВАТ


Подяка:

1. Пану urij546724 за запис звуку з ТБ.
2. Пану ug_niki за українізацію постера.


Реліз створено: &

Особиста оцінка: 8 - досить хороший драматичний трилер з елементами еротики.

Реліз не зберігатиму, видалю після появи кількох сідів.


Срібний реліз (на рейтинг впливає 50% завантаженого)
 Трекер:    Зареєстрований   

Завантажити / скачати фільм українською



відео для новачків



 Зареєстрований:   2012-07-28 12:29
 Розмір:   5.43 GB 
 Оцінка фільму:   4.6/10 (Голосів: 5)
 Прохання залишати коментарі і не тікати з роздачі.
   
ratbol 
Модератор HD


З нами з: 03.02.09
Востаннє: 10.12.16
Повідомлень: 1088

2012-08-06 20:21  
То тут багатоголоска чи двоголоска?
Ваш часовий пояс: GMT + 2 Години

Нова тема   Відповісти