Завантажити та скачати торренти українською


Нота - Разом з тобою (2007) [FLAC] | Pop

Нові коментарі

Нова тема   Відповісти
Останній раз роздавалося exlg6633 (2016-10-16)
Автор Повідомлення
Fritz 
Частий відвідувач


З нами з: 27.04.09
Востаннє: 31.05.15
Повідомлень: 32

2012-07-28 09:10  
Нота - Разом з тобою (2007) [FLAC] | Pop

Нота - Разом з тобою (2007) [FLAC] | Pop


Стиль: Pop
Країна, місто: Україна, Новояворівськ
Сайти: Офіційний сайт відсутній
Видавець: "Moon records"
Виконавці: Нота (Наталія Стадник)
Пісні:

    1. Я звикаю
    2. Слухай себе
    3. Мерседес
    4. Ідеальна половина
    5. Я не я
    6. Я вже не твоя
    7. Смак любові
    8. Весь день
    9. Money (Гроші)
    10. Для тебе
    11. Разом з тобою
    12. Відлітаєш
    13. Для тебе (ремікс)
    14. Смак любові (ремікс)
    15. Я вже не твоя (ремікс)
    16. Слухай себе - ремікс
    17. Весь день (радіо версія)
    "Відео"
    "18. Money (Гроші)"

    Video
    Format : MPEG-4 Visual
    Codec ID/Hint : DivX 5
    Duration : 3mn 15s
    Bit rate : 2 867 Kbps
    Width : 704 pixels
    Height : 560 pixels
    Display aspect ratio : 5:4

    Audio
    Codec : MP3
    Bit rate : Constant Bit rate : 128 Kbps
    Channel(s) : 2 channels
    Sampling rate : 44.1 KHz
    Compression mode : Lossy

    "19. Відлітаєш"

    Video
    Format : MPEG-4 Visual
    Codec ID/Hint : DivX 5
    Duration : 3mn 16s
    Bit rate : 2 967 Kbps
    Width : 704 pixels
    Height : 432 pixels
    Display aspect ratio : 5:4

    Audio
    Codec : MP3
    Bit rate : Constant Bit rate : 128 Kbps
    Channel(s) : 2 channels
    Sampling rate : 44.1 KHz
    Compression mode : Lossy


Тривалість: 00:57:05
Мова: українська
Ріп: Tracks, Test&Copy
Аудіо-кодек: FLAC
Бітрейт: 1071 Kbps
Джерело: Інше
Додаткова інформація:
"EAC"

Exact Audio Copy V0.99 prebeta 5 from 4. May 2009

EAC extraction logfile from 27. July 2012, 22:22

Нота / Разом з тобою

Used drive : ASUS DRW-1814BLT Adapter: 0 ID: 0

Read mode : Secure
Utilize accurate stream : Yes
Defeat audio cache : Yes
Make use of C2 pointers : No

Read offset correction : 6
Overread into Lead-In and Lead-Out : No
Fill up missing offset samples with silence : Yes
Delete leading and trailing silent blocks : No
Null samples used in CRC calculations : Yes
Used interface : Native Win32 interface for Win NT & 2000
Gap handling : Appended to previous track

Used output format : User Defined Encoder
Selected bitrate : 320 kBit/s
Quality : High
Add ID3 tag : No
Command line compressor : C:\Program Files (x86)\Exact Audio Copy\Flac\flac.exe
Additional command line options : -8 -V -T "ARTIST=%a" -T "TITLE=%t" -T "ALBUM=%g" -T "DATE=%y" -T "TRACKNUMBER=%n" -T "GENRE=%m" -T "COMMENT=EAC FLAC -8" %s

TOC of the extracted CD

Track | Start | Length | Start sector | End sector
---------------------------------------------------------
1 | 0:00.00 | 3:15.20 | 0 | 14644
2 | 3:15.20 | 3:39.60 | 14645 | 31129
3 | 6:55.05 | 3:07.30 | 31130 | 45184
4 | 10:02.35 | 3:35.60 | 45185 | 61369
5 | 13:38.20 | 3:08.18 | 61370 | 75487
6 | 16:46.38 | 3:20.36 | 75488 | 90523
7 | 20:06.74 | 3:21.20 | 90524 | 105618
8 | 23:28.19 | 3:13.60 | 105619 | 120153
9 | 26:42.04 | 3:21.21 | 120154 | 135249
10 | 30:03.25 | 3:46.56 | 135250 | 152255
11 | 33:50.06 | 3:25.74 | 152256 | 167704
12 | 37:16.05 | 3:19.07 | 167705 | 182636
13 | 40:35.12 | 3:20.33 | 182637 | 197669
14 | 43:55.45 | 3:09.07 | 197670 | 211851
15 | 47:04.52 | 3:22.17 | 211852 | 227018
16 | 50:26.69 | 3:23.64 | 227019 | 242307
17 | 53:50.58 | 3:14.44 | 242308 | 256901
18 | 59:37.27 | 15:52.74 | 268302 | 339775

Track 1

Filename C:\Users\Serhio\Desktop\Нота - Разом з тобою\01. Нота – Я звикаю.wav

Pre-gap length 0:00:02.00

Peak level 100.0 %
Track quality 99.9 %
Test CRC 936856E5
Copy CRC 936856E5
Track not present in AccurateRip database
Copy OK

Track 2

Filename C:\Users\Serhio\Desktop\Нота - Разом з тобою\02. Нота – Слухай себе.wav

Peak level 100.0 %
Track quality 99.9 %
Test CRC 35C7BE11
Copy CRC 35C7BE11
Track not present in AccurateRip database
Copy OK

Track 3

Filename C:\Users\Serhio\Desktop\Нота - Разом з тобою\03. Нота – Мерседес.wav

Peak level 100.0 %
Track quality 100.0 %
Test CRC 676284C1
Copy CRC 676284C1
Track not present in AccurateRip database
Copy OK

Track 4

Filename C:\Users\Serhio\Desktop\Нота - Разом з тобою\04. Нота – Ідеальна половина.wav

Peak level 100.0 %
Track quality 100.0 %
Test CRC 126D839B
Copy CRC 126D839B
Track not present in AccurateRip database
Copy OK

Track 5

Filename C:\Users\Serhio\Desktop\Нота - Разом з тобою\05. Нота – Я не я.wav

Peak level 100.0 %
Track quality 100.0 %
Test CRC C48AFE3D
Copy CRC C48AFE3D
Track not present in AccurateRip database
Copy OK

Track 6

Filename C:\Users\Serhio\Desktop\Нота - Разом з тобою\06. Нота – Я вже не твоя.wav

Peak level 100.0 %
Track quality 100.0 %
Test CRC FA367F9F
Copy CRC FA367F9F
Track not present in AccurateRip database
Copy OK

Track 7

Filename C:\Users\Serhio\Desktop\Нота - Разом з тобою\07. Нота – Смак любові.wav

Peak level 100.0 %
Track quality 100.0 %
Test CRC E4C5C620
Copy CRC E4C5C620
Track not present in AccurateRip database
Copy OK

Track 8

Filename C:\Users\Serhio\Desktop\Нота - Разом з тобою\08. Нота – Весь день.wav

Peak level 100.0 %
Track quality 100.0 %
Test CRC 441201C8
Copy CRC 441201C8
Track not present in AccurateRip database
Copy OK

Track 9

Filename C:\Users\Serhio\Desktop\Нота - Разом з тобою\09. Нота – Money (Гроші).wav

Peak level 98.0 %
Track quality 100.0 %
Test CRC 1C346697
Copy CRC 1C346697
Track not present in AccurateRip database
Copy OK

Track 10

Filename C:\Users\Serhio\Desktop\Нота - Разом з тобою\10. Нота – Для тебе.wav

Peak level 92.7 %
Track quality 100.0 %
Test CRC 62CB8C76
Copy CRC 62CB8C76
Track not present in AccurateRip database
Copy OK

Track 11

Filename C:\Users\Serhio\Desktop\Нота - Разом з тобою\11. Нота – Разом з тобою.wav

Peak level 97.4 %
Track quality 100.0 %
Test CRC CBF84D80
Copy CRC CBF84D80
Track not present in AccurateRip database
Copy OK

Track 12

Filename C:\Users\Serhio\Desktop\Нота - Разом з тобою\12. Нота – Відлітаєш.wav

Peak level 98.4 %
Track quality 100.0 %
Test CRC E0C66322
Copy CRC E0C66322
Track not present in AccurateRip database
Copy OK

Track 13

Filename C:\Users\Serhio\Desktop\Нота - Разом з тобою\13. Нота – Для тебе - ремікс.wav

Peak level 100.0 %
Track quality 100.0 %
Test CRC 9E72F540
Copy CRC 9E72F540
Track not present in AccurateRip database
Copy OK

Track 14

Filename C:\Users\Serhio\Desktop\Нота - Разом з тобою\14. Нота – Смак любові - ремікс.wav

Peak level 100.0 %
Track quality 100.0 %
Test CRC C1CC7462
Copy CRC C1CC7462
Track not present in AccurateRip database
Copy OK

Track 15

Filename C:\Users\Serhio\Desktop\Нота - Разом з тобою\15. Нота – Я вже не твоя - ремікс.wav

Peak level 100.0 %
Track quality 99.9 %
Test CRC 42CB62DE
Copy CRC 42CB62DE
Track not present in AccurateRip database
Copy OK

Track 16

Filename C:\Users\Serhio\Desktop\Нота - Разом з тобою\16. Нота – Слухай себе - ремікс.wav

Peak level 100.0 %
Track quality 99.9 %
Test CRC 33A6BC76
Copy CRC 33A6BC76
Track not present in AccurateRip database
Copy OK

Track 17

Filename C:\Users\Serhio\Desktop\Нота - Разом з тобою\17. Нота – Весь день - радіо версія.wav

Peak level 100.0 %
Track quality 99.9 %
Test CRC C2F723F8
Copy CRC C2F723F8
Track not present in AccurateRip database
Copy OK

None of the tracks are present in the AccurateRip database

No errors occurred

End of status report
"Спектр"


"Про виконавця:"

2007 рік – Нота, вона ж Наталія Стадник, закінчує школу. І – видає разом зі своїм гуртом перший альбом, "Разом з тобою". Гарний, треба сказати, альбом – за такий не було б соромно і досвідченим (але визрівав він майже три роки – теж строк). Втім, можливо, "дорослі" гурти просто не можуть собі дозволити нічого подібного? Що ж, тим краще для Ноти – вона стала однією з перших, якщо не першою. Здається, україномовний тін-рок дійсно запустив у простір ластівку, здатну літати красиво. Стиль альбому можна було б визначити як поп-рок, в який зі смаком домішано синти-поп та неоромантику. Але у даному випадку це не стільки визначення, скільки натяки – альбом вийшов надто прозорим, аби бути чітко окресленим. До того ж, і тексти пісень залишають простір для думок – це вам не "я тебе кохаю, ти такий солодкий, потанцюй зі мною, ніч така коротка". Не без цього, звісно – сімнадцять, як не крути – але якось чесно, без гламурного позування. І – є тут пісні, замислитись над якими не пізно у будь-якому віці. З іншого ж боку – можна просто слухати голос Ноти, і просто отримувати від того задоволення. Бо є в її голосі якась така щира, радісна тайна – і це теж приємно.

Біографія
Наталя СТАДНИК (сценічне псевдо НОТА) – молода українська співачка, котра живе у Новояворівську, народилась під знаком ЛЕВА у 1990 році. Захоплюється важким роком і мріє мати власний “живий” колектив, з яким працюватиме у майбутньому. Брала участь у фестивалях дитячої та юнацької пісні, є бажаною учасницею різноманітних концертів. Поява в ефірі радіо “Львівська Хвиля” її дебютної пісні “МЕРСЕДЕС” викликала велике зацікавлення у слухачів, пісня багаторазово звучала на замовлення у різноманітних радіопрограмах.

Є підстави сподіватися, що “МЕРСЕДЕС” згодом стане справжнім хітом. Недарма творчістю НОТИ зацікавився український продюсер та аранжувальник Володимир БЕБЕШКО, котрий, свого часу “напророчив” велике майбутнє РУСЛАНІ, групі “СКРЯБІН”, та багатьом іншим нині відомим виконавцям. До речі, готується до випуску й другий сингл НОТИ, що обіцяє бути не менш хітовим.


У комплекті: Відскановані обкладинки та диск, лог ЕАС, файл CUE, плейлист M3U, спектрограми, аудіо та відео.



Якщо Ви справді бажаєте підтримати українське - після прослуховування, якщо музика вам сподобалась, придбайте ліцензійний диск. Підтримаймо вітчизняних виконавців!


Срібний реліз (на рейтинг впливає 50% завантаженого)
 Трекер:    Зареєстрований   

Завантажити / скачати українську музику



відео для новачків



 Зареєстрований:   2012-07-28 09:10
 Розмір:   615 MB 
 Оцінка музики:   9.7/10 (Голосів: 3)
   
ssTAss 
Модератор музики


З нами з: 05.07.08
Востаннє: 07.12.16
Повідомлень: 10947

2012-07-28 14:43  
fotky.com глючать
не відтворюються скріншоти

Fritz 
Частий відвідувач


З нами з: 27.04.09
Востаннє: 31.05.15
Повідомлень: 32

2012-07-28 15:17  
До обіду працював нормально, залив скріншоти на два релізи, повставляв тут посилання, перевірив, все було добре, а потім його почало накривати. Зараз у мене навіть сайт не відкривається. Знав-би, то пошукав би інше місце, а так вже зроблено. Хоча це мабуть не дуже страшно, відновлять роботу, тоді і закінчите перевірку.
Ваш часовий пояс: GMT + 2 Години

Нова тема   Відповісти