Завантажити та скачати торренти українською


AtmAsfera (Атмасфера) - Internal (2012) [FLAC] | World Music / Folk-Rock

Нові коментарі

Нова тема   Відповісти
Автор Повідомлення
Alt 
Новенький


З нами з: 16.09.10
Востаннє: 26.11.16
Повідомлень: 9

2012-07-25 00:49  
AtmAsfera (Атмасфера) - Internal (2012) [FLAC] | World Music / Folk-Rock



Стиль: World Music, Folk-Rock
Країна, місто: Україна, Київ
Сайти: Офіційний сайт, myspace
Видавець: WAI LANA PRODUCTION
Учасники гурту:
Анастасія Яремчук – флейта, вокал
Юлія Яремчук – клавішні, вокал
Андрій Шадій – мандоліна, електро-гітара, саксонет, вокал
Андрій Черкасов – бас-гітара, бек-вокал
Михайло Пузюрін – гітара
Тімур Гогітідзе – ударні, дарабука

В запису також брали участь:
Олександр Гончарук - віолончель
Ігор Сас - гітара
Юрій Яремчук - сопрано саксофон

Пісні:
    01. Intro
    02. Where Sould I Go
    03. Bala
    04. Almost
    05. Lonely Night

    Tetralogy Apocalypse :
    06. Wart (Part I)
    07. Inside (Part II)
    08. Inspiration (Part III)
    09. Life (Part IV)

    10. Voice Of The Wind

    Bonus:
    11. Fly Away (Lety)
    12. Almost (Radioversion)

Тривалість: 01:05:01
Мова: українська (3,5,11), англійська (2,4,12), санскрит (1,8,9,10), відсутня (6,7)
Аудіо-кодек: FLAC
Бітрейт: 832 -> 1054 кб/с
Джерело: оригінальний CD (в роздачі присутні скани digi-pack)

Якщо Ви справді бажаєте підтримати українське - після прослуховування, якщо музика вам сподобалась,
придбайте ліцензійний диск та/або відвідайте концерт
Підтримаймо вітчизняних виконавців!
AtmAsfera - Internal.log

Exact Audio Copy V1.0 beta 3 from 29. August 2011

EAC extraction logfile from 24. July 2012, 22:47

AtmAsfera / Internal

Used drive : HL-DT-STDVDRAM GSA-H42L Adapter: 0 ID: 0

Read mode : Secure
Utilize accurate stream : Yes
Defeat audio cache : Yes
Make use of C2 pointers : No

Read offset correction : 102
Overread into Lead-In and Lead-Out : No
Fill up missing offset samples with silence : Yes
Delete leading and trailing silent blocks : No
Null samples used in CRC calculations : Yes
Used interface : Native Win32 interface for Win NT & 2000
Gap handling : Appended to previous track

Used output format : User Defined Encoder
Selected bitrate : 128 kBit/s
Quality : High
Add ID3 tag : No
Command line compressor : C:\Program Files\Exact Audio Copy\Flac\flac.exe
Additional command line options : -V -8 -T "Genre=%genre%" -T "Artist=%artist%" -T "Title=%title%" -T "Album=%albumtitle%" -T "Date=%year%" -T "Tracknumber=%tracknr%" -T "Comment=%comment%" %source%

TOC of the extracted CD

Track | Start | Length | Start sector | End sector
---------------------------------------------------------
1 | 0:00.00 | 5:48.07 | 0 | 26106
2 | 5:48.07 | 8:25.10 | 26107 | 63991
3 | 14:13.17 | 4:39.17 | 63992 | 84933
4 | 18:52.34 | 9:24.24 | 84934 | 127257
5 | 28:16.58 | 6:18.52 | 127258 | 155659
6 | 34:35.35 | 3:37.23 | 155660 | 171957
7 | 38:12.58 | 5:58.74 | 171958 | 198881
8 | 44:11.57 | 2:55.26 | 198882 | 212032
9 | 47:07.08 | 4:11.04 | 212033 | 230861
10 | 51:18.12 | 5:19.72 | 230862 | 254858
11 | 56:38.09 | 3:45.26 | 254859 | 271759
12 | 60:23.35 | 4:58.48 | 271760 | 294157

Track 1

Filename C:\2012 - Internal\01. Intro.wav

Pre-gap length 0:00:02.00

Peak level 97.3 %
Extraction speed 1.2 X
Track quality 100.0 %
Copy CRC EE7DF44B
Copy OK

Track 2

Filename C:\2012 - Internal\02. Where should I go.wav

Pre-gap length 0:00:02.00

Peak level 97.7 %
Extraction speed 1.5 X
Track quality 100.0 %
Copy CRC ECD8EE52
Copy OK

Track 3

Filename C:\2012 - Internal\03. Bala.wav

Pre-gap length 0:00:02.00

Peak level 95.5 %
Extraction speed 1.5 X
Track quality 99.9 %
Copy CRC 8BE6943A
Copy OK

Track 4

Filename C:\2012 - Internal\04. Almost.wav

Pre-gap length 0:00:02.00

Peak level 97.7 %
Extraction speed 1.9 X
Track quality 100.0 %
Copy CRC E0B31916
Copy OK

Track 5

Filename C:\2012 - Internal\05. Lonely night.wav

Pre-gap length 0:00:02.00

Peak level 97.7 %
Extraction speed 2.0 X
Track quality 100.0 %
Copy CRC 3F8C24E8
Copy OK

Track 6

Filename C:\2012 - Internal\06. War - part - I [Tetralogy Apocalypse].wav

Pre-gap length 0:00:02.00

Peak level 97.7 %
Extraction speed 2.0 X
Track quality 100.0 %
Copy CRC 406E66D5
Copy OK

Track 7

Filename C:\2012 - Internal\07. Inside - part - II [Tetralogy Apocalypse].wav

Peak level 95.4 %
Extraction speed 2.2 X
Track quality 100.0 %
Copy CRC B245ABFA
Copy OK

Track 8

Filename C:\2012 - Internal\08. Inspiration - part - III [Tetralogy Apocalypse].wav

Peak level 97.7 %
Extraction speed 2.1 X
Track quality 100.0 %
Copy CRC 85040473
Copy OK

Track 9

Filename C:\2012 - Internal\09. Life - part - IV [Tetralogy Apocalypse].wav

Peak level 97.7 %
Extraction speed 2.3 X
Track quality 100.0 %
Copy CRC D99766E7
Copy OK

Track 10

Filename C:\2012 - Internal\10. Voice of the Wind.wav

Pre-gap length 0:00:02.00

Peak level 97.7 %
Extraction speed 2.4 X
Track quality 100.0 %
Copy CRC F57E03EA
Copy OK

Track 11

Filename C:\2012 - Internal\11. Fly away (Lety) [Bonus].wav

Pre-gap length 0:00:02.00

Peak level 97.7 %
Extraction speed 2.4 X
Track quality 100.0 %
Copy CRC BB810A15
Copy OK

Track 12

Filename C:\2012 - Internal\12. Almost (radioversion) [Bonus].wav

Pre-gap length 0:00:02.00

Peak level 95.4 %
Extraction speed 1.6 X
Track quality 99.8 %
Copy CRC D882BF4E
Copy OK

No errors occurred

End of status report

---- CUETools DB Plugin V2.1.3

[CTDB TOCID: D1t8l8KXUs7RbIDwhw4RJQ2OYzo-] found, Submit result: already submitted
[98a16ab3] (1/1) Accurately ripped

==== Log checksum FB1C547FE41206C14FB786849CDBEAE23649E3C42AAFBE3781C6100A3A7B28B2 ====


Срібний реліз (на рейтинг впливає 50% завантаженого)
 Трекер:    Зареєстрований   

Завантажити / скачати українську музику



відео для новачків



 Зареєстрований:   2012-07-25 00:55
 Розмір:   416 MB 
 Оцінка музики:   9.8/10 (Голосів: 8)
   
ssTAss 
Модератор музики


З нами з: 05.07.08
Востаннє: 03.12.16
Повідомлень: 10932

2012-07-25 16:28  
Alt
для створення тем користуйтесь ВИКЛЮЧНО майстром створення релізів (в правому верхньому кутку сторінки кнопка "Додати торрент")

vasya 
Новенький


З нами з: 28.08.08
Востаннє: 05.05.14
Повідомлень: 9

2012-07-27 18:31  
"В записі також приймали участь" - У запису також БРАЛИ участь!!!
civ 
VIP


З нами з: 16.02.11
Востаннє: 03.12.16
Повідомлень: 428

2012-08-01 18:16  
А в мп3 роздачі на одну пісню більше... Як це?
ssTAss 
Модератор музики


З нами з: 05.07.08
Востаннє: 03.12.16
Повідомлень: 10932

2012-08-01 20:54  
civ написано:
А в мп3 роздачі на одну пісню більше... Як це?

а от так))
різні диски, різні версії
не вірите? переконайтесь самі... заходимо на оф сайт (от тобі маєш! на сайті в цього альбому взагалі тільки 11 треків)
http://www.atmasfera.com/uk/audio
тиснемо "придбати" і попадаємо на ряд магазинів
умка (і американський магазин) - 12 треків http://www.umka.com.ua/eng/catalogue/folk-rock/atmasfera-internal-digi-pack.html
емпік (і всі польські) - 13 треків http://www.empik.com/internal-atmasfera,p1046167278,muzyka-p
а Ви кажете, що в нас бардак))

civ 
VIP


З нами з: 16.02.11
Востаннє: 03.12.16
Повідомлень: 428

2012-08-02 18:29  
Зрозуміло. Треба шукати повніший диск. :-)
Ваш часовий пояс: GMT + 2 Години

Нова тема   Відповісти