Завантажити та скачати торренти українською


Зламана стріла / Broken Arrow (1996) 720р 2xUkr/Eng | Sub Eng

Нові коментарі

Нова тема   Відповісти
Автор Повідомлення
11FrYkT 
Модератор відео


З нами з: 20.02.11
Востаннє: 09.12.16
Повідомлень: 3133

2012-07-24 13:18  
Зламана стріла / Broken Arrow (1996) 720р 2xUkr/Eng | Sub Eng

Зламана стріла / Broken Arrow (1996) 720р 2xUkr/Eng | Sub Eng


Жанр: трилер, пригодницький, бойовик
Країна: США



Кіностудія / кінокомпанія: 20th Century Fox
Режисер: Джон Ву / John Woo
Актори: Джон Траволта / John Travolta, Крістіан Слейтер /Christian Slater/, Саманта Метіс /Samantha Mathis/, Делрой Ліндо /Delroy Lindo/, Френк Вейлі /Frank Whaley/, Роберт Гантон /Robert Gunton та інші.

Сюжет:
Двом пілотам-асам американських ВПС наказали виконати секретне завдання на літаку-невидимці з двома ядерними боєголовками на борту. Дікенс - невдаха по життю, що постійно пропускає підвищення по службі, задумує викрасти боєголовки з метою шантажу уряду США. Але його напарник Хейл - чесний хлопець і не дозволить нікому так просто взяти і викрасти власність своєї країни. Між ними розвертається справжня війна, в якій жертвами можуть стати не тільки вони, але й декілька мільйонів мирних жителів навколо, якщо хоча б одна ядерна боєголовка вибухне...


Тривалість: 01:48:21
Якість: 720р
Відео:
кодек:
розмір кадру: 1280 x 542
бітрейт: 5113 кб/с

Аудіо # 1:
мова: українська
переклад: двоголосий закадровий
кодек: 5.1
бітрейт: 448 кб/с

Аудіо # 2:
мова: українська
переклад: двоголосий закадровий
кодек: 5.1
бітрейт: 384 кб/с

Аудіо # 3:
мова: англійська
переклад: оригінал
кодек: 5.1
бітрейт: 1536 кб/с

Субтитри:
мова: англійська
тип: програмні (м'які)
формат: *.srt
MediaInfo
Код:
Broken Arrow (1996) 720р.mkv
   General
      UniqueID : 211471860700183257919095766425526833023 (0x9F17FFB75F1A209195508A8E5C8B8F7F)
      Complete name : Broken Arrow (1996) 720р.mkv
      Format : Matroska
      File size : 5.76 GiB
      Duration : 1h 48mn
      Overall bit rate : 7 606 Kbps
      Encoded date : UTC 2012-07-24 10:43:34
      Writing application : mkvmerge v4.9.1 ('Ich will') зібрано Jul 11 2011 23:53:15
      Writing library : libebml v1.2.1 + libmatroska v1.1.1
   Video #1
      ID : 1
      Format : AVC
      Format/Info : Advanced Video Codec
      Format profile : [email protected]
      Format settings, CABAC : Yes
      Format settings, ReFrames : 10 frames
      Codec ID : V_MPEG4/ISO/AVC
      Duration : 1h 48mn
      Bit rate : 5 113 Kbps
      Width : 1 280 pixels
      Height : 542 pixels
      Display aspect ratio : 2.35:1
      Frame rate : 23.976 fps
      Color space : YUV
      Chroma subsampling : 4:2:0
      Bit depth : 8 bits
      Scan type : Progressive
      Bits/(Pixel*Frame) : 0.307
      Stream size : 3.87 GiB (67%)
      Writing library : core 118 r2085 8a62835
      Encoding settings : cabac=1 / ref=10 / deblock=1:-3:-3 / analyse=0x3:0x113 / me=umh / subme=10 / psy=1 / psy_rd=1.12:0.07 / mixed_ref=1 / me_range=32 / chroma_me=1 / trellis=2 / 8x8dct=1 / cqm=0 / deadzone=21,11 / fast_pskip=0 / chroma_qp_offset=-3 / threads=6 / sliced_threads=0 / nr=0 / decimate=1 / interlaced=0 / bluray_compat=0 / constrained_intra=0 / bframes=10 / b_pyramid=2 / b_adapt=2 / b_bias=0 / direct=2 / weightb=1 / open_gop=0 / weightp=2 / keyint=250 / keyint_min=23 / scenecut=40 / intra_refresh=0 / rc=crf / mbtree=0 / crf=18.0 / qcomp=0.60 / qpmin=10 / qpmax=51 / qpstep=4 / ip_ratio=1.40 / pb_ratio=1.30 / aq=1:0.70
      Language : English
   Audio #2
      ID : 2
      Format : AC-3
      Format/Info : Audio Coding 3
      Mode extension : CM (complete main)
      Codec ID : A_AC3
      Duration : 1h 48mn
      Bit rate mode : Constant
      Bit rate : 448 Kbps
      Channel(s) : 6 channels
      Channel positions : Front: L C R, Side: L R, LFE
      Sampling rate : 48.0 KHz
      Bit depth : 16 bits
      Compression mode : Lossy
      Stream size : 347 MiB (6%)
      Title : 1+1 5.1 @ 448 kb/s
      Language : Ukrainian
   Audio #3
      ID : 3
      Format : AC-3
      Format/Info : Audio Coding 3
      Mode extension : CM (complete main)
      Codec ID : A_AC3
      Duration : 1h 48mn
      Bit rate mode : Constant
      Bit rate : 384 Kbps
      Channel(s) : 6 channels
      Channel positions : Front: L C R, Side: L R, LFE
      Sampling rate : 48.0 KHz
      Bit depth : 16 bits
      Compression mode : Lossy
      Stream size : 298 MiB (5%)
      Title : Новий АС3 5.1 @ 384 kb/s
      Language : Ukrainian
   Audio #4
      ID : 4
      Format :
      Format/Info : Digital Theater Systems
      Codec ID : A_DTS
      Duration : 1h 48mn
      Bit rate mode : Constant
      Bit rate : 1 510 Kbps
      Channel(s) : 6 channels
      Channel positions : Front: L C R, Side: L R, LFE
      Sampling rate : 48.0 KHz
      Bit depth : 24 bits
      Compression mode : Lossy
      Video delay : 11ms
      Stream size : 1.14 GiB (20%)
      Title : 5.1 @ 1536 kb/s
      Language : English
   Text #5
      ID : 5
      Format : UTF-8
      Codec ID : S_TEXT/UTF8
      Codec ID/Info : UTF-8 Plain Text
      Language : English
Світлини





Джерело: &
Особиста оцінка: 0 - не дивився
Велика подяка xSlim та Hulk1987 за звукозапис з ТБ, та somnambula за українізований постер.


Срібний реліз (на рейтинг впливає 50% завантаженого)
 Трекер:    Зареєстрований   

Завантажити / скачати фільм українською



відео для новачків



 Зареєстрований:   2012-07-24 13:18
 Розмір:   5.76 GB 
 Оцінка фільму:   9.1/10 (Голосів: 7)
   
Інші релізи
   Зламана стріла / Broken Arrow (1996) 2xUkr/Eng | Sub Eng _oles  4 / 0   2.18 GB   2012-07-19 09:29 
ostipko 
Відео Гуртом - підтримка та поширення
Відео Гуртом - підтримка та поширення


З нами з: 23.02.12
Востаннє: 17.11.16
Повідомлень: 620

2012-07-27 18:16  
Автор молодець, постує найкращі фільми!
Ваш часовий пояс: GMT + 2 Години

Нова тема   Відповісти