Завантажити та скачати торренти українською


Чужі на районі / Attack the Block (2011) 720p Ukr/Eng

Нові коментарі

Нова тема   Відповісти
Автор Повідомлення
Sando7 
Відео Гуртом - запис з ТБ
Відео Гуртом - запис з ТБ


З нами з: 04.05.09
Востаннє: 09.12.16
Повідомлень: 841

2012-07-23 21:51  
Чужі на районі / Attack the Block (2011) 720p Ukr/Eng

Чужі на районі / Attack the Block (2011) 720p Ukr/Eng


Жанр: фантастика, бойовик, комедія
Країна: Велика Британія



Режисер: Джо Корніш
Актори: Джон Бойеґа, Джоді Уітаккер, Алекс Есмейл, Нік Фрост, Наташа Джонас...

Сюжет:
Малолітні хулігани вже було зібралися по дорослому пограбувати медсестру, коли їх увага перемкнулася на казна-звідки прилетівшого інопланетянина, що приземлився майже на голову юним розбійникам. Пристукнувши злобного прибульця, герої фільму незабаром розуміють, що святкувати перемогу ще рано. Їх район став місцем висадки цілого загону кровожерливих позаземних істот і озброївшись до зубів бітами і ключками, хлопці приготувалися «радо» зустріти непроханих гостей.


Тривалість: 01:27:44
Якість: 720р
Відео:
кодек:
розмір кадру: 1280 х 536
бітрейт: 6140 кб/с

Аудіо # 1:
мова: українська
переклад: багатоголосий закадровий
кодек: 2.0
бітрейт: 256 кб/с

Аудіо # 2:
мова: англійська
переклад: оригінал
кодек: 2.0
бітрейт: 256 кб/с

Джерело озвучення:
MediaInfo
General

Unique ID : 252303129663395485752945561856605915684 (0xBDCFD0B41A0D71EFB197BF1EAE078A24)
Complete name : E:\Attack the Block (2011) [Ukr] 720p [Hurtom].mkv
Format : Matroska
Format version : Version 1
File size : 3.76 GiB
Duration : 1h 27mn
Overall bit rate : 6 140 Kbps
Encoded date : UTC 2012-07-23 18:11:40
Writing application : mkvmerge v2.4.1 ('Use Me') built on Dec 5 2008 18:30:05
Writing library : libebml v0.7.7 + libmatroska v0.8.1

Video
ID : 1
Format : AVC
Format/Info : Advanced Video Codec
Format profile : [email protected]
Format settings, CABAC : Yes
Format settings, ReFrames : 5 frames
Codec ID : V_MPEG4/ISO/AVC
Duration : 1h 27mn
Bit rate : 5 626 Kbps
Width : 1 280 pixels
Height : 536 pixels
Display aspect ratio : 2.40:1
Frame rate : 24.000 fps
Color space : YUV
Chroma subsampling : 4:2:0
Bit depth : 8 bits
Scan type : Progressive
Bits/(Pixel*Frame) : 0.342
Stream size : 3.37 GiB (90%)
Writing library : core 116 r2074 2641b9e
Encoding settings : cabac=1 / ref=5 / deblock=1:0:0 / analyse=0x3:0x133 / me=umh / subme=7 / psy=1 / psy_rd=1.00:0.00 / mixed_ref=1 / me_range=16 / chroma_me=1 / trellis=1 / 8x8dct=1 / cqm=0 / deadzone=21,11 / fast_pskip=1 / chroma_qp_offset=-2 / threads=12 / sliced_threads=0 / nr=0 / decimate=1 / interlaced=0 / bluray_compat=0 / constrained_intra=0 / bframes=3 / b_pyramid=2 / b_adapt=2 / b_bias=0 / direct=3 / weightb=1 / open_gop=0 / weightp=2 / keyint=250 / keyint_min=23 / scenecut=40 / intra_refresh=0 / rc=2pass / mbtree=0 / bitrate=5626 / ratetol=1.0 / qcomp=0.60 / qpmin=0 / qpmax=69 / qpstep=4 / cplxblur=20.0 / qblur=0.5 / ip_ratio=1.40 / pb_ratio=1.30 / aq=1:1.00
Language : English
Default : Yes
Forced : No

Audio #1
ID : 2
Format : AC-3
Format/Info : Audio Coding 3
Mode extension : CM (complete main)
Codec ID : A_AC3
Duration : 1h 27mn
Bit rate mode : Constant
Bit rate : 256 Kbps
Channel(s) : 2 channels
Channel positions : Front: L R
Sampling rate : 48.0 KHz
Bit depth : 16 bits
Compression mode : Lossy
Stream size : 161 MiB (4%)
Title : 1+1
Language : Ukrainian
Default : Yes
Forced : No

Audio #2
ID : 3
Format : AC-3
Format/Info : Audio Coding 3
Mode extension : CM (complete main)
Codec ID : A_AC3
Duration : 1h 27mn
Bit rate mode : Constant
Bit rate : 256 Kbps
Channel(s) : 2 channels
Channel positions : Front: L R
Sampling rate : 48.0 KHz
Bit depth : 16 bits
Compression mode : Lossy
Stream size : 161 MiB (4%)
Language : English
Default : No
Forced : No

Menu
00:00:00.000 : en:00:00:00.000
00:08:12.708 : en:00:08:12.708
00:16:05.250 : en:00:16:05.250
00:21:54.125 : en:00:21:54.125
00:29:45.542 : en:00:29:45.542
00:37:39.000 : en:00:37:39.000
00:41:27.583 : en:00:41:27.583
00:50:21.250 : en:00:50:21.250
01:00:51.333 : en:01:00:51.333
01:06:26.958 : en:01:06:26.958
01:13:33.125 : en:01:13:33.125
01:20:06.042 : en:01:20:06.042


Джерело:


 Трекер:    Зареєстрований   

Завантажити / скачати фільм українською



відео для новачків



 Зареєстрований:   2012-07-23 21:51
 Розмір:   3.76 GB 
 Оцінка фільму:   7.8/10 (Голосів: 16)
   
Інші релізи
   Чужі на районі / Attack the Block (2011) AVC Ukr/Eng AngryBirdsUA  2 / 0   1.76 GB   2012-07-25 22:13 
   Чужі на районі / Attack the Block (2011) patriot2305  3 / 0   1.34 GB   2012-07-24 10:23 
Anonymous 







2012-07-23 22:25  
фільм звісно не ах, але за реліз дякую
чекаю ріп

rkononenko 
Відео Гуртом - субтитрування
Відео Гуртом - субтитрування


З нами з: 24.02.09
Востаннє: 09.12.16
Повідомлень: 1140

2012-07-23 22:31  
Цитата:
фільм звісно не ах, але за реліз дякую
чекаю ріп


Кому як. Фільм - бомба, принаймні в оригіналі мені дуж сподобалось і жарти дебело проперли.

patriot2305 
Почесний гуртомівець


З нами з: 23.04.11
Востаннє: 09.12.16
Повідомлень: 4145

2012-07-23 22:57  
Гість написано:
чекаю ріп

Завтра викладу
від HQCLUB з розміром ~1,37 GB

taras1994 
Почесний оцифрувальник літератури


З нами з: 23.03.12
Востаннє: 30.11.16
Повідомлень: 5096

2012-07-24 09:22  
Сюжет нудний тому оцінка 1
leroykendall 
Модератор HD


З нами з: 03.01.11
Востаннє: 20.11.16
Повідомлень: 749

2012-07-24 23:08  
sando7 написано:
Якість:

Якість: 720p

Ваш часовий пояс: GMT + 2 Години

Нова тема   Відповісти