Завантажити та скачати торренти українською


Пограбування по-італійськи / The Italian Job (2003) 720p 2xUkr/Eng | sub Eng

Нові коментарі

Нова тема   Відповісти
Автор Повідомлення
pyatachok 
Координатор літератури


З нами з: 30.01.10
Востаннє: 06.12.16
Повідомлень: 1337

2012-07-23 13:32  
Пограбування по-італійськи / The Italian Job (2003) 720p 2xUkr/Eng | sub Eng

Пограбування по-італійськи / The Italian Job (2003) 720p 2xUkr/Eng | sub Eng


Жанр: бойовик, трилер, кримінальний
Країна: США, Франція, Великобританія



Кіностудія / кінокомпанія: Paramount Pictures, De Line Pictures
Режисер: Ф. Гері Грей
Актори: Марк Уолберг, Едвард Нортон, Шарліз Терон, Джейсон Стетхем, Сет Грін

Сюжет:
Банда грабіжників під керівництвом Чарлі Крокера на повній швидкості мчить на мініатюрних MINI Cooper’ах по вулицях Лос-Анджелеса і навіть занурюється в підземку. Банда прагне відвезти в безпечне місце здобич - сейф, набитий золотом. У Лос-Анджелесі з його жахливими пробками просто так не поїздиш, тому банда заздалегідь поклопоталася про «зелену вулицю» для себе: на всіх світлофорах по шляху їх проходження горить тільки зелене світло. Для інших, відповідно, горить червоний, що провокує грандіозну в історії Лос-Анджелеса дорожню пробку.


Тривалість: 01:50:32
Якість: 720р
Відео:
кодек:
розмір кадру: 1280 х 528
бітрейт: 5278 кб/с

Аудіо # 1:
мова: українська
переклад: багатоголосий закадровий
кодек: 5.1
бітрейт: 448 кб/с

Аудіо # 2:
мова: українська
переклад: двоголосий закадровий
кодек: 5.1
бітрейт: 384 кб/с

Аудіо # 3:
мова: англійська
переклад: оригінал
кодек: 5.1
бітрейт: 448 кб/с

Джерело озвучення:
&

Субтитри:
мова: англійська
тип: програмні (м'які)
формат: *.srt
MediaInfo
General
Unique ID : 224664235213912678227775510267826124016 (0xA904C1FF62D9C79B9B61DD0732DDB4F0)
Complete name : D:\video\The Italian Job (2003) 720p.mkv
Format : Matroska
Format version : Version 2
File size : 5.06 GiB
Duration : 1h 50mn
Overall bit rate : 6 559 Kbps
Encoded date : UTC 2012-07-23 09:52:23
Writing application : mkvmerge v5.4.0 ('Piper') built on Mar 10 2012 13:34:39
Writing library : libebml v1.2.3 + libmatroska v1.3.0

Video
ID : 1
Format : AVC
Format/Info : Advanced Video Codec
Format profile : [email protected]
Format settings, CABAC : Yes
Format settings, ReFrames : 4 frames
Codec ID : V_MPEG4/ISO/AVC
Duration : 1h 50mn
Bit rate : 5 278 Kbps
Width : 1 280 pixels
Height : 528 pixels
Display aspect ratio : 2.40:1
Frame rate : 23.976 fps
Color space : YUV
Chroma subsampling : 4:2:0
Bit depth : 8 bits
Scan type : Progressive
Bits/(Pixel*Frame) : 0.326
Stream size : 3.98 GiB (78%)
Writing library : core 112 r1867 22bfd31
Encoding settings : cabac=1 / ref=3 / deblock=1:0:0 / analyse=0x3:0x113 / me=hex / subme=7 / psy=1 / psy_rd=1.00:0.00 / mixed_ref=1 / me_range=16 / chroma_me=1 / trellis=1 / 8x8dct=1 / cqm=0 / deadzone=21,11 / fast_pskip=1 / chroma_qp_offset=-2 / threads=4 / sliced_threads=0 / nr=0 / decimate=1 / interlaced=0 / constrained_intra=0 / bframes=3 / b_pyramid=2 / b_adapt=1 / b_bias=0 / direct=1 / weightb=1 / open_gop=0 / weightp=2 / keyint=250 / keyint_min=23 / scenecut=40 / intra_refresh=0 / rc_lookahead=40 / rc=2pass / mbtree=1 / bitrate=5278 / ratetol=1.0 / qcomp=0.60 / qpmin=0 / qpmax=51 / qpstep=4 / cplxblur=20.0 / qblur=0.5 / ip_ratio=1.40 / aq=1:1.00
Language : English
Default : No
Forced : No

Audio #1
ID : 2
Format : AC-3
Format/Info : Audio Coding 3
Mode extension : CM (complete main)
Codec ID : A_AC3
Duration : 1h 50mn
Bit rate mode : Constant
Bit rate : 448 Kbps
Channel(s) : 6 channels
Channel positions : Front: L C R, Side: L R, LFE
Sampling rate : 48.0 KHz
Bit depth : 16 bits
Compression mode : Lossy
Stream size : 354 MiB (7%)
Title : 1+1
Language : Ukrainian
Default : Yes
Forced : No

Audio #2
ID : 3
Format : AC-3
Format/Info : Audio Coding 3
Mode extension : CM (complete main)
Codec ID : A_AC3
Duration : 1h 50mn
Bit rate mode : Constant
Bit rate : 384 Kbps
Channel(s) : 6 channels
Channel positions : Front: L C R, Side: L R, LFE
Sampling rate : 48.0 KHz
Bit depth : 16 bits
Compression mode : Lossy
Stream size : 304 MiB (6%)
Title : Інтер
Language : Ukrainian
Default : No
Forced : No

Audio #3
ID : 4
Format : AC-3
Format/Info : Audio Coding 3
Mode extension : CM (complete main)
Codec ID : A_AC3
Duration : 1h 50mn
Bit rate mode : Constant
Bit rate : 448 Kbps
Channel(s) : 6 channels
Channel positions : Front: L C R, Side: L R, LFE
Sampling rate : 48.0 KHz
Bit depth : 16 bits
Compression mode : Lossy
Stream size : 354 MiB (7%)
Language : English
Default : No
Forced : No

Text
ID : 5
Format : UTF-8
Codec ID : S_TEXT/UTF8
Codec ID/Info : UTF-8 Plain Text
Language : English
Default : Yes
Forced : No

Menu
00:00:00.000 : :00:00:00.000
00:02:25.819 : :00:02:25.819
00:05:26.624 : :00:05:26.624
00:11:25.900 : :00:11:25.900
00:16:48.180 : :00:16:48.180
00:24:01.029 : :00:24:01.029
00:30:03.391 : :00:30:03.391
00:40:29.475 : :00:40:29.475
00:54:58.093 : :00:54:58.093
01:01:33.613 : :01:01:33.613
01:08:07.465 : :01:08:07.465
01:16:49.611 : :01:16:49.611
01:23:26.883 : :01:23:26.883
01:28:35.608 : :01:28:35.608
01:34:54.320 : :01:34:54.320
01:40:16.559 : :01:40:16.559
Скріншоти



За запис звуку подяка пану slavik_v_z
За звукові доріжки подяка пану JACKUS



Джерело: &
Особиста оцінка: 8 - мені сподобалося


Срібний реліз (на рейтинг впливає 50% завантаженого)
 Трекер:    Зареєстрований   

Завантажити / скачати фільм українською



відео для новачків



 Зареєстрований:   2012-07-23 13:32
 Розмір:   5.06 GB 
 Оцінка фільму:   9.6/10 (Голосів: 25)
   
taras1994 
Почесний оцифрувальник літератури


З нами з: 23.03.12
Востаннє: 30.11.16
Повідомлень: 5096

2012-07-23 18:00  
Цікавий фільм, але назва це кепкування з італійців, машини британські, вироблені в Німеччині, а тепер, ось вам пограбування пограбування по-італійськи, логіка, ні не чув, якби Фіат 500 все б стало на свої місця.

Приємного всім перегляду.

pyatachok 
Координатор літератури


З нами з: 30.01.10
Востаннє: 06.12.16
Повідомлень: 1337

2012-07-23 18:50  
taras1994
Можливо така назва бо перше пограбування відбувалось в Італії. Та все ж якою б не була назва, фільм вартий перегляду, імхо.

taras1994 
Почесний оцифрувальник літератури


З нами з: 23.03.12
Востаннє: 30.11.16
Повідомлень: 5096

2012-07-23 19:22  
pyatachok написано:
фільм вартий перегляду, імхо.

Безперечно вартий, це фільм з розряду, Не впіймали - не злодій, Пограбування на Бейкер-Стріт , Уол-стріт: Гроші не сплять, цікаво дивитися по декілька раз, відкриваєш нові моменти, приховані події, люблю такі фільми. А з приводу назви Пограбування по-італійськи, то є одне пояснення яке спало на думку, глобалізація.

leroykendall 
Модератор HD


З нами з: 03.01.11
Востаннє: 20.11.16
Повідомлень: 749

2012-07-24 23:15  
pyatachok написано:
Якість:

Якість: 720p

11FrYkT 
Модератор відео


З нами з: 20.02.11
Востаннє: 06.12.16
Повідомлень: 3100

2012-07-24 23:23  
Фільм класний. Колись давно бачив, а сьогодні вирішив переглянути ще раз.
Автору дякую

Gedet 
Відео Гуртом - субтитрування
Відео Гуртом - субтитрування


З нами з: 17.11.11
Востаннє: 05.12.16
Повідомлень: 1750

2012-07-24 23:24  
1280 х 528 - це далеко не 720 р.
pyatachok 
Координатор літератури


З нами з: 30.01.10
Востаннє: 06.12.16
Повідомлень: 1337

2012-07-24 23:35  
leroykendall
Виправив.
Gedet написано:
1280 х 528 - це далеко не 720 р.

А що це по-вашому, SD?)

Ваш часовий пояс: GMT + 2 Години

Нова тема   Відповісти