Завантажити та скачати торренти українською


Містер Ніхто / Mr. Nobody [Розширена версія / Extended Cut] (2009) 720p Ukr/Eng | Sub Ukr/Eng

Нові коментарі

Нова тема   Відповісти
Автор Повідомлення
11FrYkT 
Модератор відео


З нами з: 20.02.11
Востаннє: 09.12.16
Повідомлень: 3133

2012-07-23 08:58  
Містер Ніхто / Mr. Nobody [Розширена версія / Extended Cut] (2009) 720p Ukr/Eng | Sub Ukr/Eng

Містер Ніхто / Mr. Nobody [Розширена версія / Extended Cut] (2009) 720p Ukr/Eng | Sub Ukr/Eng

«Усе можливо, доки не зроблено вибір»



Жанр: драма, мелодрама, фантастика
Країна: Бельгія, Німеччина, Канада, Франція



Кіностудія / кінокомпанія: Pan Européenne Production, Virtual Films, Christal Films
Режисер: Жако Ван Дормель
Актори: Джаред Лето, Діана Крюгер, Сара Поллі, Різ Айфенс, Джуно Темпл, Наташа Літтл, Деніел Мейзі, Бен Менсфілд, Ніколас Бівіні, Лоран Капеллуто, Киара Казеллі, Крістель Корнілов, Дідьє Де Нек, Тедд Діллон, Серж Ларів'єр, Лін Дан Пам, Клер Стоун

Сюжет:
Головний герой раптово прокидається в 2092 році старим 120-річним дідом і розуміє, що він є останнім смертним на планеті, доживає свій вік серед щасливих безсмертних людей. Сам Немо стверджує, що нічого не пам'ятає про своє минуле, але психіатр і журналіст, який нишком пробрався в палату до містера Ніхто, витягують з нього подробиці його життя, все більше і більше заплутуючи себе і глядача. Весь фільм - це нібито уривки спогадів містера Ніхто, представлені нам в абсолютно випадковому порядку, але насправді незрозуміло, що з них спогади, а що просто можливий розвиток життя Немо, який так і не відбувся.


Тривалість: 02:35:36
Якість: 720р
Відео:
кодек:
розмір кадру: 1280 x 546
бітрейт: 4900 кб/с

Аудіо # 1:
мова: українська
переклад: багатоголосий закадровий
кодек: 5.1
бітрейт: 448 кб/с

Аудіо # 2:
мова: англійська
переклад: оригінал
кодек: 5.1
бітрейт: 1536 кб/с

Джерело озвучення:
ТО "Цікава ідея" на замовлення Hurtom.com

Субтитри:
мова: українська
тип: програмні (м'які)
формат: *.srt
переклад: w2958l, smisha, yume

Субтитри:
мова: англійська
тип: програмні (м'які)
формат: *.srt
MediaInfo
Код:
Mr. Nobody ( Extended Cut) (2009) 720p.mkv
   General
      UniqueID : 196489906872951056871336015007974219828 (0x93D2945CD767048EB4D427FDA4BCE034)
      Complete name : Mr. Nobody ( Extended Cut) (2009) 720p.mkv
      Format : Matroska
      File size : 7.37 GiB
      Duration : 2h 35mn
      Overall bit rate : 6 784 Kbps
      Encoded date : UTC 2012-07-23 06:36:14
      Writing application : mkvmerge v4.9.1 ('Ich will') зібрано Jul 11 2011 23:53:15
      Writing library : libebml v1.2.1 + libmatroska v1.1.1
   Video #1
      ID : 1
      Format : AVC
      Format/Info : Advanced Video Codec
      Format profile : [email protected]
      Format settings, CABAC : Yes
      Format settings, ReFrames : 8 frames
      Codec ID : V_MPEG4/ISO/AVC
      Duration : 2h 35mn
      Bit rate : 4 900 Kbps
      Width : 1 280 pixels
      Height : 546 pixels
      Display aspect ratio : 2.35:1
      Frame rate : 24.000 fps
      Color space : YUV
      Chroma subsampling : 4:2:0
      Bit depth : 8 bits
      Scan type : Progressive
      Bits/(Pixel*Frame) : 0.292
      Stream size : 5.10 GiB (69%)
      Writing library : core 110 r1804 e89c4cf
      Encoding settings : cabac=1 / ref=8 / deblock=1:-3:-3 / analyse=0x3:0x113 / me=umh / subme=10 / psy=1 / psy_rd=0.90:0.00 / mixed_ref=1 / me_range=32 / chroma_me=1 / trellis=2 / 8x8dct=1 / cqm=0 / deadzone=21,11 / fast_pskip=0 / chroma_qp_offset=-2 / threads=3 / sliced_threads=0 / nr=0 / decimate=1 / interlaced=0 / constrained_intra=0 / bframes=5 / b_pyramid=2 / b_adapt=2 / b_bias=0 / direct=3 / weightb=1 / open_gop=0 / weightp=2 / keyint=250 / keyint_min=23 / scenecut=40 / intra_refresh=0 / rc_lookahead=40 / rc=2pass / mbtree=1 / bitrate=4900 / ratetol=1.0 / qcomp=0.60 / qpmin=0 / qpmax=51 / qpstep=4 / cplxblur=20.0 / qblur=0.5 / ip_ratio=1.40 / aq=1:0.80
      Language : English
   Audio #2
      ID : 2
      Format : AC-3
      Format/Info : Audio Coding 3
      Mode extension : CM (complete main)
      Codec ID : A_AC3
      Duration : 2h 35mn
      Bit rate mode : Constant
      Bit rate : 448 Kbps
      Channel(s) : 6 channels
      Channel positions : Front: L C R, Side: L R, LFE
      Sampling rate : 48.0 KHz
      Bit depth : 16 bits
      Compression mode : Lossy
      Stream size : 499 MiB (7%)
      Title : 5.1 @ 448 kb/s
      Language : Ukrainian
   Audio #3
      ID : 3
      Format :
      Format/Info : Digital Theater Systems
      Codec ID : A_DTS
      Duration : 2h 35mn
      Bit rate mode : Constant
      Bit rate : 1 510 Kbps
      Channel(s) : 6 channels
      Channel positions : Front: L C R, Side: L R, LFE
      Sampling rate : 48.0 KHz
      Bit depth : 16 bits
      Compression mode : Lossy
      Stream size : 1.64 GiB (22%)
      Title : 5.1 @ 1536 kb/s
      Language : English
   Text #4
      ID : 4
      Format : UTF-8
      Codec ID : S_TEXT/UTF8
      Codec ID/Info : UTF-8 Plain Text
      Language : Ukrainian
   Text #5
      ID : 5
      Format : UTF-8
      Codec ID : S_TEXT/UTF8
      Codec ID/Info : UTF-8 Plain Text
      Language : English
Світлини










Джерело: &
Особиста оцінка: 9 - давно не бачив настільки якісне кіно


Авторський реліз (завантажувати можна без реєстрації)
 Трекер:    Зареєстрований   

Завантажити / скачати фільм українською



відео для новачків



 Зареєстрований:   2012-07-23 08:58
 Розмір:   7.37 GB 
 Оцінка фільму:   9.8/10 (Голосів: 32)
   
ratbol 
Модератор HD


З нами з: 03.02.09
Востаннє: 07.12.16
Повідомлень: 1088

2012-07-23 09:37  
Адмін казав, що буде звук .

11FrYkT написано:
не дивився

Дарма, раджу подивитись якнайшвидше.

11FrYkT 
Модератор відео


З нами з: 20.02.11
Востаннє: 09.12.16
Повідомлень: 3133

2012-07-23 09:39  
ratbol , ну якщо то прикручу до 1080р, а на рахунок не дивився, то чекав на озвучку. Сьогодні буду переглядати.
siangok 
Свій


З нами з: 07.08.12
Востаннє: 30.11.16
Повідомлень: 53

2013-01-28 15:26  
Шкода втраченого часу. Інша інтерпритація "Ефекту метелика", як на мене, набагато гірша.
urij546724 
Відео Гуртом - фільмокрай
Відео Гуртом - фільмокрай


З нами з: 16.03.10
Востаннє: 08.12.16
Повідомлень: 5222

2013-06-20 17:30  
Фільм цікавий, але неймовірно повільний і розтягнутий, а ще подекуди запутаний. Багатьом такі фільми подобаються, але я не в їх числі, тому ледве витримав щоб не заснути(
Ваш часовий пояс: GMT + 2 Години

Нова тема   Відповісти