Завантажити та скачати торренти українською


Левко Дурко - Супер-хіт (1996) [FLAC] | Pop

Нові коментарі

Нова тема   Відповісти
Автор Повідомлення
ssTAss 
Модератор музики


З нами з: 05.07.08
Востаннє: 03.12.16
Повідомлень: 10930

2012-07-22 22:34  
Левко Дурко - Супер-хіт (1996) [FLAC] | Pop

Левко Дурко - Супер-хіт (1996) [FLAC] | Pop


Стиль: Pop
Країна, місто: Україна, Стрий
Сайти: Офіційний сайт
Видавець: NAC
Виконавці:
Заслужений артист України Леонтій Володимирович Бебешко
Пісні:
    01. Булочка (4:07)
    02. Згуба (3:06)
    03. Инспектор Хома (3:12)
    04. Мало (4:53)
    05. Було (4:31)
    06. Переполох (3:38)
    07. Про Коника (5:05)
    08. Любов Моя (3:40)
    09. Карате (3:16)
    10. Мила Моя, Мила (3:09)
    11. Пролетарська Лірична (4:06)
log
Exact Audio Copy V1.0 beta 1 from 15. November 2010

EAC extraction logfile from 5. June 2012, 19:20

Левко-Дурко / Супер-Хіт

Used drive : Optiarc DVD RW AD-7200A Adapter: 0 ID: 0

Read mode : Secure
Utilize accurate stream : Yes
Defeat audio cache : Yes
Make use of C2 pointers : No

Read offset correction : 48
Overread into Lead-In and Lead-Out : No
Fill up missing offset samples with silence : Yes
Delete leading and trailing silent blocks : No
Null samples used in CRC calculations : Yes
Used interface : Native Win32 interface for Win NT & 2000
Gap handling : Appended to previous track

Used output format : User Defined Encoder
Selected bitrate : 768 kBit/s
Quality : High
Add ID3 tag : No
Command line compressor : C:\Program Files\Exact Audio Copy\Flac\flac.exe
Additional command line options : -8 -V -T "ARTIST=%a" -T "TITLE=%t" -T "ALBUM=%g" -T "DATE=%y" -T "TRACKNUMBER=%n" -T "TOTALTRACKS=%x" -T "GENRE=%m" -T "ALBUMARTIST=%v" -T "ALBUM ARTIST=%v" -T "COMMENT=EAC Secure Mode, Test & Copy, AccurateRip, FLAC -8" %s

TOC of the extracted CD

Track | Start | Length | Start sector | End sector
---------------------------------------------------------
1 | 0:00.30 | 4:07.25 | 30 | 18579
2 | 4:07.55 | 3:06.12 | 18580 | 32541
3 | 7:13.67 | 3:11.55 | 32542 | 46921
4 | 10:25.47 | 4:52.43 | 46922 | 68864
5 | 15:18.15 | 4:31.35 | 68865 | 89224
6 | 19:49.50 | 3:37.42 | 89225 | 105541
7 | 23:27.17 | 5:05.05 | 105542 | 128421
8 | 28:32.22 | 3:40.03 | 128422 | 144924
9 | 32:12.25 | 3:15.72 | 144925 | 159621
10 | 35:28.22 | 3:08.55 | 159622 | 173776
11 | 38:37.02 | 4:05.55 | 173777 | 192206

Track 1

Filename E:\Левко-Дурко - Супер-Хіт (1996) [FLAC] {NAC, NAC 040204, Росія, 1996}\01 - Булочка.wav

Pre-gap length 0:00:02.40

Peak level 82.1 %
Extraction speed 2.3 X
Track quality 100.0 %
Test CRC 0B15F75D
Copy CRC 0B15F75D
Track not present in AccurateRip database
Copy OK

Track 2

Filename E:\Левко-Дурко - Супер-Хіт (1996) [FLAC] {NAC, NAC 040204, Росія, 1996}\02 - Згуба.wav

Pre-gap length 0:00:00.06

Peak level 91.7 %
Extraction speed 2.4 X
Track quality 100.0 %
Test CRC 4E2C331A
Copy CRC 4E2C331A
Track not present in AccurateRip database
Copy OK

Track 3

Filename E:\Левко-Дурко - Супер-Хіт (1996) [FLAC] {NAC, NAC 040204, Росія, 1996}\03 - Инспектор Хома.wav

Pre-gap length 0:00:00.02

Peak level 86.7 %
Extraction speed 2.6 X
Track quality 100.0 %
Test CRC 836A3586
Copy CRC 836A3586
Track not present in AccurateRip database
Copy OK

Track 4

Filename E:\Левко-Дурко - Супер-Хіт (1996) [FLAC] {NAC, NAC 040204, Росія, 1996}\04 - Мало.wav

Pre-gap length 0:00:00.02

Peak level 82.0 %
Extraction speed 2.7 X
Track quality 99.9 %
Test CRC 5E42871F
Copy CRC 5E42871F
Track not present in AccurateRip database
Copy OK

Track 5

Filename E:\Левко-Дурко - Супер-Хіт (1996) [FLAC] {NAC, NAC 040204, Росія, 1996}\05 - Було.wav

Pre-gap length 0:00:00.04

Peak level 97.9 %
Extraction speed 3.3 X
Track quality 100.0 %
Test CRC E27EDBFC
Copy CRC E27EDBFC
Track not present in AccurateRip database
Copy OK

Track 6

Filename E:\Левко-Дурко - Супер-Хіт (1996) [FLAC] {NAC, NAC 040204, Росія, 1996}\06 - Переполох.wav

Pre-gap length 0:00:00.04

Peak level 79.7 %
Extraction speed 3.4 X
Track quality 100.0 %
Test CRC 6789B25C
Copy CRC 6789B25C
Track not present in AccurateRip database
Copy OK

Track 7

Filename E:\Левко-Дурко - Супер-Хіт (1996) [FLAC] {NAC, NAC 040204, Росія, 1996}\07 - Про Коника.wav

Pre-gap length 0:00:00.02

Peak level 87.9 %
Extraction speed 3.7 X
Track quality 100.0 %
Test CRC 630FF4F0
Copy CRC 630FF4F0
Track not present in AccurateRip database
Copy OK

Track 8

Filename E:\Левко-Дурко - Супер-Хіт (1996) [FLAC] {NAC, NAC 040204, Росія, 1996}\08 - Любов Моя.wav

Pre-gap length 0:00:00.02

Peak level 93.2 %
Extraction speed 3.7 X
Track quality 100.0 %
Test CRC 7C09034D
Copy CRC 7C09034D
Track not present in AccurateRip database
Copy OK

Track 9

Filename E:\Левко-Дурко - Супер-Хіт (1996) [FLAC] {NAC, NAC 040204, Росія, 1996}\09 - Карате.wav

Pre-gap length 0:00:00.04

Peak level 90.7 %
Extraction speed 3.8 X
Track quality 100.0 %
Test CRC CB50A83C
Copy CRC CB50A83C
Track not present in AccurateRip database
Copy OK

Track 10

Filename E:\Левко-Дурко - Супер-Хіт (1996) [FLAC] {NAC, NAC 040204, Росія, 1996}\10 - Мила Моя, Мила.wav

Pre-gap length 0:00:00.02

Peak level 84.4 %
Extraction speed 3.9 X
Track quality 100.0 %
Test CRC B6B0C26D
Copy CRC B6B0C26D
Track not present in AccurateRip database
Copy OK

Track 11

Filename E:\Левко-Дурко - Супер-Хіт (1996) [FLAC] {NAC, NAC 040204, Росія, 1996}\11 - Пролетарська Лірична.wav

Pre-gap length 0:00:00.02

Peak level 82.7 %
Extraction speed 3.7 X
Track quality 99.9 %
Test CRC 9CE0CE75
Copy CRC 9CE0CE75
Track not present in AccurateRip database
Copy OK

None of the tracks are present in the AccurateRip database

No errors occurred

End of status report

==== Log checksum C2B24B6996B587F892BEAE52C294EC3CAD734EFB55ED45C61B42C3341B752E00 ====
audiochecker
AUDIOCHECKER v2.0 beta (build 457) - by Dester - [email protected]
~~~~~~~~~~~~~~~~~~~~~~~~~~~~~~~~~~
-=== DO NOT EDIT THIS FILE! ===-

Path: ...\1996 Супер-Хіт

01 -=- 01 - Булочка.flac -=- CDDA (100%)
02 -=- 02 - Згуба.flac -=- CDDA (100%)
03 -=- 03 - Инспектор Хома.flac -=- CDDA (100%)
04 -=- 04 - Мало.flac -=- CDDA (100%)
05 -=- 05 - Було.flac -=- CDDA (100%)
06 -=- 06 - Переполох.flac -=- CDDA (100%)
07 -=- 07 - Про Коника.flac -=- CDDA (100%)
08 -=- 08 - Любов Моя.flac -=- CDDA (100%)
09 -=- 09 - Карате.flac -=- CDDA (100%)
10 -=- 10 - Мила Моя, Мила.flac -=- CDDA (100%)
11 -=- 11 - Пролетарська Лірична.flac -=- CDDA (99%)

Summary 99,91% CDDA

228615604
Тривалість: 00:42:42
Мова: українська
Аудіо-кодек: FLAC
Бітрейт: 864-988 кб/с
Джерело: рутрекер
Додаткова інформація:
Леонтій Бебешко (17.06.49) на професійну естраду взагалі-то не збирався - недовчився в інституті фізкультури, закінчив сільськогосподарський технікум, приколювався на «Юрай Хіп» і, граючи на весіллях, опановував основи ринкових відносин. В 1989 році за допомогою свого брата Володимира Бебешка, професійного звукорежисера і аранжувальника, записав першу свою пісню «Їду в Югославію» (Левкові тоді стукнуло 40 і він вдавав з себе музиканта з гурту зовиці Віки). А далі пішло-поїхало - перший альбом, другий, третій... (всі на «Студії Лева»). В Канаді вийшла дитяча платівка «Веселі пригоди Левка Дурка». і досі Левкові виступи сприймаються неоднозначно - від повного захвату до абсолютного несприйняття, і не важливо чи з-за текстів пісень з’явилося сценічне ім’я Дурко, а чи навпаки. Втім пісні Левка Дурка заспівали вже й інші виконавці - Віктор Морозов, Ірчик зі Львова, Віталій Сачок. В кінці 1996 року лейбл НАК випустив CD-збірник Левка Дурка «Супер хіти», а за рік свіжий альбом «Дівчино вишли листа», ще за рік - «Весілля під столом»; кілька касеток випустила також дрогобицька студія «Фенікс». Надалі Левко переключився на створення пісень для дітей - кращі з них увійшли до компакту «Казки Левка Дурка». (cheremshyna.org.ua)


Якщо Ви справді бажаєте підтримати українське - після прослуховування, якщо музика вам сподобалась,
придбайте ліцензійний диск.
Підтримаймо вітчизняних виконавців!


Срібний реліз (на рейтинг впливає 50% завантаженого)
 Трекер:    Зареєстрований   

Завантажити / скачати українську музику



відео для новачків



 Зареєстрований:   2012-07-22 22:34
 Розмір:   282 MB 
 Оцінка музики:   8.8/10 (Голосів: 22)
   
nahema 
Частий відвідувач


З нами з: 05.01.10
Востаннє: 27.11.16
Повідомлень: 40

2012-07-23 11:25  
Класний альбом... "Булочка" та "Мила, моя Мила" - супер... згода?
Згода! Happy))

Skiff 
музика
музика


З нами з: 12.11.07
Востаннє: 03.12.16
Повідомлень: 3051

2012-09-09 21:18  
ssTAss написано:
Супер-хіт (2007)

Інфо з лоґу + ґуґлу каже 96-й.

sergiyko 
Забанено
Забанено


З нами з: 17.06.08
Востаннє: 13.10.13
Повідомлень: 259

2012-09-10 21:59  
Торрент теж має назву Levko_Durko_1996_Super-Hit.torrent 
ssTAss 
Модератор музики


З нами з: 05.07.08
Востаннє: 03.12.16
Повідомлень: 10930

2012-09-11 20:47  
Skiff написано:
Інфо з лоґу + ґуґлу каже 96-й.

sergiyko написано:
Торрент теж має назву Levko_Durko_1996_Super-Hit.torrent 

дякую за вашу уважність
то я щось напльонтав.. певно створював в той час ще якийсь реліз і машинально поставив 2007
виправляю

RedBorsch 
Частий відвідувач


З нами з: 07.04.12
Востаннє: 08.02.16
Повідомлень: 26

2013-04-26 23:53  
Левко Дурко - супер! Колись любив його слухати.
ssTAss 
Модератор музики


З нами з: 05.07.08
Востаннє: 03.12.16
Повідомлень: 10930

2016-02-11 23:17  
незабаром на Толоці буде

Віктор 
Відео Гуртом - субтитрування
Відео Гуртом - субтитрування


З нами з: 09.01.10
Востаннє: 03.12.16
Повідомлень: 8662

2016-05-01 21:33  
ssTAss написано:
Сайти: Офіційний сайт

Не фуричить посилання. Ось оновлена адреса: http://levko-durko.love-s.org/ До речі, пісня: малинове варення на дисках не виходила?

mr.killer 
Свій


З нами з: 11.08.10
Востаннє: 30.11.16
Повідомлень: 146

2016-07-25 09:56  
ssTAss написано:
незабаром на Толоці буде

на жаль "Львівська хата" так і не з'явилася на толоці Sad (1)

До речі, як на рахунок сканів диску "Супер-хіт", реально зробити?

ssTAss 
Модератор музики


З нами з: 05.07.08
Востаннє: 03.12.16
Повідомлень: 10930

2016-07-25 19:52  
mr.killer написано:
на жаль "Львівська хата" так і не з'явилася на толоці

перепрошую, забув
викладу завтра, але сканів буклету немає, то будуть фотки

Ваш часовий пояс: GMT + 2 Години

Нова тема   Відповісти