Завантажити та скачати торренти українською


Ірчик зі Львова - То - я (1995) [FLAC] | Pop

Нові коментарі

Нова тема   Відповісти
Останній раз роздавалося yushel (2016-12-04)
Автор Повідомлення
ssTAss 
Модератор музики


З нами з: 05.07.08
Востаннє: 03.12.16
Повідомлень: 10932

2012-07-22 22:18  
Ірчик зі Львова - То - я (1995) [FLAC] | Pop

Ірчик зі Львова - То - я (1995) [FLAC] | Pop


Стиль: Pop
Країна, місто: Україна, Львів
Сайти: Офіційний сайт
Видавець: NAC
Виконавці:
Ірина Підлипна
Пісні:
    01. То - Я (4:17)
    02. Не Сваріть Мене, Мамо (3:40)
    03. Пам'ятаю (3:01)
    04. Зоряний Час (4:24)
    05. Зачекай (4:38)
    06. Циганятко (3:35)
    07. До Третіх Півнів (4:21)
    08. Зорепад (4:11)
    09. Українська Ламбада (3:13)
    10. Розкажи Мені, Мамо (6:19)
    11. Цьом-цьом, Па-па! (4:43)
log
Exact Audio Copy V1.0 beta 1 from 15. November 2010

EAC extraction logfile from 18. May 2012, 12:42

Ірчик Зі Львова / То - Я

Used drive : Optiarc DVD RW AD-7200A Adapter: 0 ID: 0

Read mode : Secure
Utilize accurate stream : Yes
Defeat audio cache : Yes
Make use of C2 pointers : No

Read offset correction : 48
Overread into Lead-In and Lead-Out : No
Fill up missing offset samples with silence : Yes
Delete leading and trailing silent blocks : No
Null samples used in CRC calculations : Yes
Used interface : Native Win32 interface for Win NT & 2000
Gap handling : Appended to previous track

Used output format : User Defined Encoder
Selected bitrate : 768 kBit/s
Quality : High
Add ID3 tag : No
Command line compressor : C:\Program Files\Exact Audio Copy\Flac\flac.exe
Additional command line options : -8 -V -T "ARTIST=%a" -T "TITLE=%t" -T "ALBUM=%g" -T "DATE=%y" -T "TRACKNUMBER=%n" -T "TOTALTRACKS=%x" -T "GENRE=%m" -T "ALBUMARTIST=%v" -T "ALBUM ARTIST=%v" -T "COMMENT=EAC Secure Mode, Test & Copy, AccurateRip, FLAC -8" %s

TOC of the extracted CD

Track | Start | Length | Start sector | End sector
---------------------------------------------------------
1 | 0:00.40 | 4:16.40 | 40 | 19279
2 | 4:17.05 | 3:40.15 | 19280 | 35794
3 | 7:57.20 | 3:00.65 | 35795 | 49359
4 | 10:58.10 | 4:24.22 | 49360 | 69181
5 | 15:22.32 | 4:38.30 | 69182 | 90061
6 | 20:00.62 | 3:35.03 | 90062 | 106189
7 | 23:35.65 | 4:21.32 | 106190 | 125796
8 | 27:57.22 | 4:11.35 | 125797 | 144656
9 | 32:08.57 | 3:13.10 | 144657 | 159141
10 | 35:21.67 | 6:19.15 | 159142 | 187581
11 | 41:41.07 | 4:42.53 | 187582 | 208784

Track 1

Filename E:\Ірчик Зі Львова - То Я (1995) [FLAC] {NAC, 040104, Ukraine, 1996}\01 - То - Я.wav

Pre-gap length 0:00:02.53

Peak level 84.1 %
Extraction speed 2.3 X
Track quality 100.0 %
Test CRC 4B23DAEA
Copy CRC 4B23DAEA
Track not present in AccurateRip database
Copy OK

Track 2

Filename E:\Ірчик Зі Львова - То Я (1995) [FLAC] {NAC, 040104, Ukraine, 1996}\02 - Не Сваріть Мене, Мамо.wav

Pre-gap length 0:00:00.04

Peak level 82.9 %
Extraction speed 2.5 X
Track quality 100.0 %
Test CRC F1D04287
Copy CRC F1D04287
Track not present in AccurateRip database
Copy OK

Track 3

Filename E:\Ірчик Зі Львова - То Я (1995) [FLAC] {NAC, 040104, Ukraine, 1996}\03 - Пам'ятаю.wav

Pre-gap length 0:00:00.06

Peak level 75.9 %
Extraction speed 2.6 X
Track quality 100.0 %
Test CRC 3D7A802F
Copy CRC 3D7A802F
Track not present in AccurateRip database
Copy OK

Track 4

Filename E:\Ірчик Зі Львова - То Я (1995) [FLAC] {NAC, 040104, Ukraine, 1996}\04 - Зоряний Час.wav

Pre-gap length 0:00:00.04

Peak level 76.7 %
Extraction speed 3.0 X
Track quality 100.0 %
Test CRC A3D17BA4
Copy CRC A3D17BA4
Track not present in AccurateRip database
Copy OK

Track 5

Filename E:\Ірчик Зі Львова - То Я (1995) [FLAC] {NAC, 040104, Ukraine, 1996}\05 - Зачекай.wav

Pre-gap length 0:00:00.06

Peak level 80.8 %
Extraction speed 3.3 X
Track quality 100.0 %
Test CRC 19849E3D
Copy CRC 19849E3D
Track not present in AccurateRip database
Copy OK

Track 6

Filename E:\Ірчик Зі Львова - То Я (1995) [FLAC] {NAC, 040104, Ukraine, 1996}\06 - Циганятко.wav

Pre-gap length 0:00:00.02

Peak level 77.2 %
Extraction speed 3.3 X
Track quality 100.0 %
Test CRC 06A5FF32
Copy CRC 06A5FF32
Track not present in AccurateRip database
Copy OK

Track 7

Filename E:\Ірчик Зі Львова - То Я (1995) [FLAC] {NAC, 040104, Ukraine, 1996}\07 - До Третіх Півнів.wav

Pre-gap length 0:00:00.04

Peak level 81.2 %
Extraction speed 3.6 X
Track quality 100.0 %
Test CRC 1B26D907
Copy CRC 1B26D907
Track not present in AccurateRip database
Copy OK

Track 8

Filename E:\Ірчик Зі Львова - То Я (1995) [FLAC] {NAC, 040104, Ukraine, 1996}\08 - Зорепад.wav

Pre-gap length 0:00:00.02

Peak level 76.6 %
Extraction speed 3.8 X
Track quality 100.0 %
Test CRC 012E5960
Copy CRC 012E5960
Track not present in AccurateRip database
Copy OK

Track 9

Filename E:\Ірчик Зі Львова - То Я (1995) [FLAC] {NAC, 040104, Ukraine, 1996}\09 - Українська Ламбада.wav

Pre-gap length 0:00:00.06

Peak level 82.4 %
Extraction speed 3.8 X
Track quality 100.0 %
Test CRC A5DC5F74
Copy CRC A5DC5F74
Track not present in AccurateRip database
Copy OK

Track 10

Filename E:\Ірчик Зі Львова - То Я (1995) [FLAC] {NAC, 040104, Ukraine, 1996}\10 - Розкажи Мені, Мамо.wav

Pre-gap length 0:00:00.02

Peak level 78.2 %
Extraction speed 4.0 X
Track quality 99.9 %
Test CRC 2E73AE9E
Copy CRC 2E73AE9E
Track not present in AccurateRip database
Copy OK

Track 11

Filename E:\Ірчик Зі Львова - То Я (1995) [FLAC] {NAC, 040104, Ukraine, 1996}\11 - Цьом-цьом, Па-па!.wav

Pre-gap length 0:00:00.06

Peak level 75.3 %
Extraction speed 4.4 X
Track quality 100.0 %
Test CRC 55299B7A
Copy CRC 55299B7A
Track not present in AccurateRip database
Copy OK

None of the tracks are present in the AccurateRip database

No errors occurred

End of status report

==== Log checksum 8ABC63DE3BB5AA9D2EC5C9498E96350927F1ECE5BDB75E0801A60ECDC52B5007 ====
audiochecker
AUDIOCHECKER v2.0 beta (build 457) - by Dester - [email protected]
~~~~~~~~~~~~~~~~~~~~~~~~~~~~~~~~~~
-=== DO NOT EDIT THIS FILE! ===-

Path: ...\1995 То - Я

01 -=- 01 - То - Я.flac -=- CDDA (100%)
02 -=- 02 - Не Сваріть Мене, Мамо.flac -=- CDDA (100%)
03 -=- 03 - Пам'ятаю.flac -=- CDDA (100%)
04 -=- 04 - Зоряний Час.flac -=- CDDA (100%)
05 -=- 05 - Зачекай.flac -=- CDDA (100%)
06 -=- 06 - Циганятко.flac -=- CDDA (100%)
07 -=- 07 - До Третіх Півнів.flac -=- CDDA (100%)
08 -=- 08 - Зорепад.flac -=- CDDA (100%)
09 -=- 09 - Українська Ламбада.flac -=- CDDA (100%)
10 -=- 10 - Розкажи Мені, Мамо.flac -=- CDDA (100%)
11 -=- 11 - Цьом-цьом, Па-па!.flac -=- CDDA (100%)

Summary 100,00% CDDA

181326628
Тривалість: 00:46:23
Мова: українська
Аудіо-кодек: FLAC
Бітрейт: 829-1026 кб/с
Джерело: рутрекер
Додаткова інформація:
Ірчик зі Львова
Львів’янка Ірина Підлипна (04 травня день її народження) в музиці змалку - закінчила дитячу музичну студію по класу фортепіано, співала в дитячому ансамблі «Посмішка» під керівництвом А. Кузіна. У цьому коллективі разом з Ірою співала Руслана Лижичко, Олег Білий(О. Шевченко), Р.Бойко- нині відомі особистості.

В 1989 році в ансамблі композитора Олександра Єрченка та продюссера І.Тучинського «Свято» вона стала Ірчиком зі Львова. У 1989 на екрани Українського телебачення вийшов перший видео кліп «Українська ламбада». Тоді ж було відзнято кліпи « Мадонна» і «До третіх півнів». Через рік стала солісткою «Студії Лева»; паралельно навчалася в Львівському Державному університеті ім.Франко на факультеті “Українська філологія” .

На конкурсі «Червона рута-91» супер-хіти «Українська ламбада» та «До третіх півнів» зробили її на той час поп-співачкою №1 в Україні. 1991 році вийшов альбом «До третіх півнів». Після cкандалу на фестивалі «Марія» (м.Трускавець) в 1992 році Ірчик пішла із «Студії Лева» . 1992 рік- з композитором Іваном Небесним і О.Джинджистою була створена лірична пісня «Розкажи мені мамо». У 1994 році з піснею «Пам'ятаю» була запрошена на телевізійну программу «Шире круг» м. Москва. У 1995 р. А.Кузьменко (Кузьма) подарував Ірині новий текст, на який В. Бебешко написав музику і у Ірчик народився новий хіт «То - я», на котрий В. Зайковський відзняв відео кліп.

Восени 1995 року фірма НАК , випустила нове CD Ірчика - «То - я». У 1996 році у м. Львові відбулася презентація нового CD. Ще одна вдала співпраця була з А. Кривутою і В. Бебешко, була створена пісня «Але я знаю», яка у 1996 р. стала лауреатом музичної программи «Шлягер року». Через рік Ірчик дебютувала як драматична актриса - в театрі ім. Заньковецької вона зіграла Марічку в опереті «Шаріка» та Офелію в трагедії В.Шекспіра «Гамлет». У 1997 роцi разом з театром ім. М Заньковецької гастролювала у США, виступала на фестивалях «Союзівка», «Верховина» ( США).

У 1998 роцi вона закінчила Львівський Вищий Музичний Інститут ім. М. Лисенка, за фахом - актриса театру і кіно, та Львівський Державний Університет ім. I. Франка, українська фiлологiя. Літом 1998-го, вже як Ірена вона приступила до запису альбому з красномовною назвою «Літо-літо» в співпраці з композитором Феліксом Луцьким (США), який був виданий фірмою НАК . В 1999-му канадський лейбл «Євшан» випустив новий CD-збірник пісень співачки «Найкращі пісні». В 2000 році у м.Торонто (Канада) виступала на українському фестивалі «Bloor West».

У 2004 році народився син Олександр Луцький. Ірчик стала щасливою мамою і продовжує займатися творчістю. У 2008 році з давнім другом сім' ї Г.Кричевским Ірчик заспівала дует «Я і ти» , на сл. і муз. Ф.Луцького. У цьому ж році пісня «Я і ти» отримала нагороду пісенного фестивалю «Золоті пісні року» (м.Київ). У 2009 році Ірчик записала пісню «Україно», сл. Ф.Луцький, С.Галінкіна, муз. Ф.Луцький. Музичний продюссер пісень- В.Бебешко
.


Якщо Ви справді бажаєте підтримати українське - після прослуховування, якщо музика вам сподобалась,
придбайте ліцензійний диск.
Підтримаймо вітчизняних виконавців!


Срібний реліз (на рейтинг впливає 50% завантаженого)
 Трекер:    Зареєстрований   

Завантажити / скачати українську музику



відео для новачків



 Зареєстрований:   2012-07-22 22:18
 Розмір:   319 MB 
 Оцінка музики:   8.4/10 (Голосів: 17)
   
ssTAss 
Модератор музики


З нами з: 05.07.08
Востаннє: 03.12.16
Повідомлень: 10932

2012-07-22 22:20  
обкладинка з касетної версії
якщо хто має змогу надати скани СD, то буду вдячний

iwan wan 
VIP


З нами з: 01.10.09
Востаннє: 04.12.16
Повідомлень: 1745

2012-07-22 23:49  
Круто , що й таке спливає з часом
евгений 7676 
Забанено
Забанено


З нами з: 30.08.12
Востаннє: 03.10.12
Повідомлень: 1

2012-08-30 18:44  
ssTAss написано:

обкладинка з касетної версії

якщо хто має змогу надати скани СD, то буду вдячний

а видання на CD і не було, угу

ssTAss 
Модератор музики


З нами з: 05.07.08
Востаннє: 03.12.16
Повідомлень: 10932

2012-08-31 23:09  
евгений 7676 написано:
а издания на CD и не было,угу

в нас спілкуються українською

Gienek_Lwow 
VIP


З нами з: 28.09.10
Востаннє: 04.12.16
Повідомлень: 540

2012-12-31 17:44  
евгений 7676 написано:
а видання на CD і не було, угу

Цікаво що за знавець таке сказав, було - NAC 1995/1996 ?!


ssTAss 
Модератор музики


З нами з: 05.07.08
Востаннє: 03.12.16
Повідомлень: 10932

2012-12-31 19:45  
Gienek_Lwow
дякую, вже змінюю

Gienek_Lwow 
VIP


З нами з: 28.09.10
Востаннє: 04.12.16
Повідомлень: 540

2012-12-31 20:35  
ssTAss, та го-о-о-ді!!!
Дуже симпатиична співачка-землячка, з приємним юнацько - бешкетним, голосом.

Ірчик, щасти тобі, ми тебе любимо!!! Wink (1)

Додано через 17 хвилин 49 секунд:

Анотація з буклету цього видання Г. Кричевський.


shupike 
Новенький


З нами з: 20.03.10
Востаннє: 07.05.16
Повідомлень: 6

2013-06-29 21:38  
Щось не завантажується :-( Чи є в кого цей альбом - будь ласка, приєднайтесь до роздачі...
ssTAss 
Модератор музики


З нами з: 05.07.08
Востаннє: 03.12.16
Повідомлень: 10932

2013-06-29 21:54  
shupike написано:
будь ласка, приєднайтесь до роздачі...

вже є на роздачі

shupike 
Новенький


З нами з: 20.03.10
Востаннє: 07.05.16
Повідомлень: 6

2013-06-29 22:00  
ssTAss написано:
вже є на роздачі

Величезне Вам дякую :-) Останній раз слухав ще на радіо "Промінь" в 1994 році на ультракоротких хвилях (якщо ще хтось пам'ятає, що це таке)...

stad-nick 
Новенький


З нами з: 13.08.11
Востаннє: 03.12.16
Повідомлень: 24

2015-04-19 23:30  
Панове! А хтось може викласти такий же реліз, але в MP3? Дякую.
Ваш часовий пояс: GMT + 2 Години

Нова тема   Відповісти