Завантажити та скачати торренти українською


Споун [Режисерська версія] / Spawn (1997) Remux Ukr/Eng | Sub Ukr/Eng [Director's Cut]

Нові коментарі

Нова тема   Відповісти
Автор Повідомлення
urij546724 
Відео Гуртом - фільмокрай
Відео Гуртом - фільмокрай


З нами з: 16.03.10
Востаннє: 03.12.16
Повідомлень: 5222

2012-07-22 17:44  
Споун [Режисерська версія] / Spawn (1997) Remux Ukr/Eng | Sub Ukr/Eng [Director's Cut]

Альтернативний постер
Слоган:
«Born in darkness. Sworn to justice.»
«Народжений в темряві. Присвячений правосуддю.»


Жанр: екшн, фентезі, трилер
Країна: США ()



Кіностудія / кінокомпанія: New Line Cinema, Pull Down Your Pants Pictures, Todd McFarlane Entertainment
Режисер: Марк А.З. Діппе (Mark AZ Dippé)
Актори: Майкл Джей Вайт (Michael Jai Whiten), Джон Легуізамо (John Leguizamo), Мартін Шин (Martin Sheen), Тереза Рендл (Theresa Randle)...
Усі актори та їх фото:
Майкл Джей Вайт (Michael Jai Whiten), Джон Легуізамо (John Leguizamo), Мартін Шин (Martin Sheen), Тереза Рендл (Theresa Randle), Нікол Вільямсон (Nicol Williamson), Д.Б. Свіні (DB Sweeney), Мелінда Кларк (Melinda Clarke), Міко Хьюз (Miko Hughes), Сідні Бодуан (Sydni Beaudoin), Майкл Пападжон (Michael Papajohn), Френк Велкер (Frank Welker), Робія Ламорт (Robia LaMorte), Джон Котрен мол. (John Cothran Jr.), Керолайн Гібсон (Caroline Gibson), Тоні Хейні (Tony Haney), Марк Робінсон (Marc Robinson), Дерріл Воррен (Darryl Warren), Кріс Коппола (Chris Coppola), Майк Акраббім (Mike Akrawi), Джей Капуто (Jay Caputo), Ромео Акраббім (Romeo Akrawi), Джек Коулмен (Jack Coleman), Лаура Степп (Laura Stepp), Гаррісон Сінгер (Garrison Singer), Тодд МакФарлейн (Todd McFarlane), Анжелі Альмендар (Angelie Almendare), Ентоні Дженовезе (Anthony Genovese), Стюарт Лью (Stewart Lew)




Сюжет:
«Краповий берет» Ел Сіммонс убитий своїм начальником під час виконання чергової місії. Потрапивши в чистилище, він укладає угоду з Дияволом. Сатана дає йому силу, обладунки та зброю.

В обмін на те, щоб ще раз побачити свою дружину, Сіммонс повинен попередити прихід сил Зла на Землю. Опинившись на волі, він розриває контракт в односторонньому порядку...


Бюджет: 40 000 000 доларів
Збори в США: 54 870 175 доларів
Збори у світі: 87 840 042 долари
Назва фільму у інших країнах
Spawn
Франція / Німеччина / Італія / Словенія / Іспанія / Туреччина


O Justiceiro das Trevas
Португалія


Skoteinos ekdikitis
Греція


Spawn - Az ivadék
Угорщина


Spawn - O Soldado do Inferno
Бразилія


Spoun
Сербія


Спаун / Отродье
Росія
Чи знаєте ви, що...
1) Спочатку передбачалося, що постановником стрічки стане Тім Бертон.
2) Кличка собаки Спаз дана в честь постановника спецефектів Стіва «Спаз» Вільямса.
Нагороди і номінації
Сатурн, 1998 рік
Номінації (1):
1) Кращий грим
Media info
General
Unique ID : 203804428308614375454347174108945935814 (0x99534E1CDB7B40C99C5394697CA76DC6)
Complete name : E:\Spawn (1997) [Director's Cut] [ukr_Inter_eng_DTS_5.1, sub ukr_eng] Remux [Hurtom] by urij546724.mkv
Format : Matroska
Format version : Version 2
File size : 25.1 GiB
Duration : 1h 38mn
Overall bit rate mode : Variable
Overall bit rate : 36.4 Mbps
Movie name : Spawn (1997) [Director's Cut] [ukr_Inter_eng_DTS_5.1, sub ukr_eng] Remux [Hurtom] by urij546724
Encoded date : UTC 2012-07-22 15:20:40
Writing application : mkvmerge v2.9.7 ('Tenderness') built on Jul 1 2009 18:43:35
Writing library : libebml v0.7.7 + libmatroska v0.8.1

Video
ID : 1
Format : AVC
Format/Info : Advanced Video Codec
Format profile : [email protected]
Format settings, CABAC : Yes
Format settings, ReFrames : 2 frames
Format settings, GOP : M=1, N=10
Muxing mode : Container [email protected]
Codec ID : V_MPEG4/ISO/AVC
Duration : 1h 38mn
Bit rate mode : Variable
Bit rate : 32.4 Mbps
Width : 1 920 pixels
Height : 1 080 pixels
Display aspect ratio : 16:9
Frame rate : 23.976 fps
Color space : YUV
Chroma subsampling : 4:2:0
Bit depth : 8 bits
Scan type : Progressive
Bits/(Pixel*Frame) : 0.653
Stream size : 22.3 GiB (89%)
Title : Spawn (1997) [Director's Cut] [ukr_Inter_eng_DTS_5.1, sub ukr_eng] Remux [Hurtom] by urij546724
Language : English
Default : Yes
Forced : No

Audio #1
ID : 2
Format :
Format/Info : Digital Theater Systems
Codec ID : A_DTS
Duration : 1h 38mn
Bit rate mode : Constant
Bit rate : 1 510 Kbps
Channel(s) : 6 channels
Channel positions : Front: L C R, Side: L R, LFE
Sampling rate : 48.0 KHz
Bit depth : 24 bits
Compression mode : Lossy
Stream size : 1.04 GiB (4%)
Title : Українська доріжка 5.1
Language : Ukrainian
Default : Yes
Forced : No

Audio #2
ID : 3
Format : AC-3
Format/Info : Audio Coding 3
Mode extension : CM (complete main)
Format settings, Endianness : Big
Codec ID : A_AC3
Duration : 1h 38mn
Bit rate mode : Constant
Bit rate : 192 Kbps
Channel(s) : 2 channels
Channel positions : Front: L R
Sampling rate : 48.0 KHz
Bit depth : 16 bits
Compression mode : Lossy
Stream size : 135 MiB (1%)
Title : Українська доріжка 2.0
Language : Ukrainian
Default : No
Forced : No

Audio #3
ID : 4
Format :
Format/Info : Digital Theater Systems
Format profile : MA / Core
Codec ID : A_DTS
Duration : 1h 38mn
Bit rate mode : Variable
Bit rate : 1 561 Kbps / 1 510 Kbps
Channel(s) : 6 channels
Channel positions : Front: L C R, Side: L R, LFE
Sampling rate : 48.0 KHz
Bit depth : 24 bits
Compression mode : Lossless / Lossy
Title : Англійська доріжка
Language : English
Default : No
Forced : No

Text #1
ID : 5
Format : UTF-8
Codec ID : S_TEXT/UTF8
Codec ID/Info : UTF-8 Plain Text
Title : Українські субтитри
Language : Ukrainian
Default : Yes
Forced : No

Text #2
ID : 6
Format : UTF-8
Codec ID : S_TEXT/UTF8
Codec ID/Info : UTF-8 Plain Text
Title : Англійські субтитри
Language : English
Default : No
Forced : No


Тривалість: 01:38:33
Якість: Remux
Відео:
кодек:
розмір кадру: 1920 х 1080
бітрейт: ~ 32.4 мб/с
частота кадрів: 23.976 к/с (fps)

Аудіо #1:
мова: українська
переклад: багатоголосий закадровий
кодек: 5.1
бітрейт: 1510 кб/с
озвучено:

Аудіо #2:
мова: українська
переклад: багатоголосий закадровий
кодек: 2.0
бітрейт: 192 кб/с
озвучено:

Аудіо #3:
мова: англійська
переклад: оригінал
кодек: 5.1
бітрейт: 4780 кб/с

Субтитри #1:
мова: українська
тип: програмні (м'які)
формат: *.srt
переклад: з російської urij546724

Субтитри #2:
мова: англійська
тип: програмні (м'які)
формат: *.srt

Скріншоти:





Трейлер:



Семпл
Джерело 1_________Джерело 2_________Джерело 3_________Джерело 4
У випадку, якщо з усіх джерел семпл видалять, прохання повідомити мені у ПРИВАТ


Подяка:

1. Пану dvorsky за запис звуку з ТБ.
2. Пану Дмитро митро і Пану hellforces за українізацію постера.


Реліз створено: &

Особиста оцінка: Ще не дивився.

Реліз не зберігатиму, видалю після появи кількох сідів.


Золотий реліз (завантажене не впливає на рейтинг)
 Трекер:    Зареєстрований   

Завантажити / скачати фільм українською



відео для новачків



 Зареєстрований:   2012-07-22 19:15
 Розмір:   25.08 GB 
 Оцінка фільму:   5.3/10 (Голосів: 6)
 Прохання залишати коментарі і не тікати з роздачі.
   
Інші релізи
   Споун [Режисерська версія] / Spawn (1997) Ukr/Eng | Sub Ukr/Eng [Director's Cut] urij546724  2 / 0   2 GB   2012-07-23 17:41 
   Спавн / Spawn (1997) Ukr | Sub Ukr/Eng patriot2305  1 / 0   1.45 GB   2012-07-01 21:51 
   Спаун / Spawn (1997) Ukr/Eng | Sub Ukr/Eng urij546724  2 / 0   2.01 GB   2012-06-26 18:32 
   Спаун / Spawn (1997) 1080p Ukr/Eng | Sub Ukr/Eng urij546724  1 / 0   9.21 GB   2012-06-26 11:42 
JACKUS 
Відео Гуртом - фільмокрай
Відео Гуртом - фільмокрай


З нами з: 08.10.09
Востаннє: 22.11.16
Повідомлень: 1943

2012-07-22 19:31  
Хотів запитати, як ти збираєш звук у дтс. Я так розумію не Sonic Audio Transcoderом
urij546724 
Відео Гуртом - фільмокрай
Відео Гуртом - фільмокрай


З нами з: 16.03.10
Востаннє: 03.12.16
Повідомлень: 5222

2012-07-22 20:03  
JACKUS написано:
Я так розумію не Sonic Audio Transcoderом

Так. Збираю Суркодом (SurCode DVD-), хоча кажуть, що це не надто хороша програма, але для мене зручна.

leroykendall 
Модератор HD


З нами з: 03.01.11
Востаннє: 20.11.16
Повідомлень: 749

2012-07-22 22:18  
urij546724 написано:
Сповн

В попередніх релізах було "Спавн". А як в озвучці?

urij546724 
Відео Гуртом - фільмокрай
Відео Гуртом - фільмокрай


З нами з: 16.03.10
Востаннє: 03.12.16
Повідомлень: 5222

2012-07-22 22:55  
leroykendall написано:
В попередніх релізах було "Спавн". А як в озвучці?

Ну в попередніх інша озвучка.
У цій озвучили Сповн (хоча може й Споун, просто розібрати трохи проблемно.)

Ваш часовий пояс: GMT + 2 Години

Нова тема   Відповісти