Завантажити та скачати торренти українською


Вуличні танці 2 / StreetDance 2 (2012) 720p Ukr/Eng | Sub Eng | Line

Нові коментарі

Нова тема   Відповісти
Автор Повідомлення
xfsthe 
Оцифрування книг Гуртом
Оцифрування книг Гуртом


З нами з: 13.02.11
Востаннє: 05.12.16
Повідомлень: 279

2012-07-22 15:46  
Вуличні танці 2 / StreetDance 2 (2012) 720p Ukr/Eng | Sub Eng | Line

Вуличні танці 2 / StreetDance 2 (2012) 720p Ukr/Eng | Sub Eng | Line


Жанр: драма, м’юзикл, романтичний
Країна: Велика Британія, Німеччина



Кіностудія / кінокомпанія: Vertigo Films, BBC Films, British Film Institute
Режисер: Макс Ґіва, Даня Пасквіні
Актори: Софія Боутелла, Джордж Сепмсон та інші

Сюжет:
Років п'ять тому на вулицях наших міст з'явилися дивні молоді люди. Стаючи в коло і роблячи, таким чином, своєрідну сцену вони по черзі влаштовували танцювальні конкурси - виступи.
Проходячи повз танцюючу молодь неможливо відірвати свій погляд, адже цей танець зачаровує своєю неординарністю та непередбачуваністю. Ритмічність музики змушує відгукуватися на ритм кожну клітинку організму. Неможливо просто дивитися на них, хочеться рухатися з ними в такт.


Тривалість: 01:24:56
Якість: 720p
Відео:
кодек:
розмір кадру: 1280 х 688
бітрейт: 6 599 кб/с
частота кадрів: 23,976 кадрів/c

Аудіо # 1:
мова: українська
переклад: професійний дубльований | Line
кодек: 2.0
бітрейт: 384 кб/с

Аудіо # 2:
мова: англійська
переклад: оригінал
кодек: 5.1
бітрейт: 754 кб/с

Субтитри #1:
мова: англійська
тип: програмні (м'які)
формат: *.srt
MediaInfo

General
Unique ID : 183412227317127038447111613787900971703 (0x89FBE8FAB8484CA2E58DFBC34E3B8AB7)
Complete name : /media/media/StreetDance 2 (2012) [ukr-Line,eng] sub[eng] 720p.mkv
Format : Matroska
Format version : Version 2
File size : 4.59 GiB
Duration : 1h 24mn
Overall bit rate : 7 745 Kbps
Movie name : Вуличні танці 2 / StreetDance 2 (2012) 720p
Encoded date : UTC 2012-07-22 13:22:11
Writing application : mkvmerge v5.1.0 ('And so it goes') built on Feb 1 2012 11:31:23
Writing library : libebml v1.2.2 + libmatroska v1.3.0

Video
ID : 1
Format : AVC
Format/Info : Advanced Video Codec
Format profile : [email protected]
Format settings, CABAC : Yes
Format settings, ReFrames : 5 frames
Codec ID : V_MPEG4/ISO/AVC
Duration : 1h 24mn
Bit rate : 6 599 Kbps
Width : 1 280 pixels
Height : 688 pixels
Display aspect ratio : 1.85:1
Frame rate : 23.976 fps
Color space : YUV
Chroma subsampling : 4:2:0
Bit depth : 8 bits
Scan type : Progressive
Bits/(Pixel*Frame) : 0.313
Stream size : 3.83 GiB (83%)
Title : Вуличні танці 2 / StreetDance 2 (2012) 720p
Writing library : core 125 r2200 999b753
Encoding settings : cabac=1 / ref=5 / deblock=1:0:0 / analyse=0x3:0x2 / me=umh / subme=7 / psy=1 / psy_rd=1.00:0.00 / mixed_ref=1 / me_range=16 / chroma_me=1 / trellis=1 / 8x8dct=1 / cqm=0 / deadzone=21,11 / fast_pskip=1 / chroma_qp_offset=-2 / threads=12 / lookahead_threads=2 / sliced_threads=0 / nr=0 / decimate=1 / interlaced=0 / bluray_compat=0 / constrained_intra=0 / bframes=3 / b_pyramid=2 / b_adapt=1 / b_bias=0 / direct=1 / weightb=0 / open_gop=0 / weightp=2 / keyint=240 / keyint_min=23 / scenecut=40 / intra_refresh=0 / rc=2pass / mbtree=0 / bitrate=6599 / ratetol=1.0 / qcomp=0.60 / qpmin=10 / qpmax=51 / qpstep=4 / cplxblur=20.0 / qblur=0.5 / ip_ratio=1.40 / pb_ratio=1.30 / aq=1:1.00
Language : English
Default : Yes
Forced : Yes

Audio #1
ID : 2
Format : AC-3
Format/Info : Audio Coding 3
Mode extension : CM (complete main)
Format settings, Endianness : Big
Codec ID : A_AC3
Duration : 1h 24mn
Bit rate mode : Constant
Bit rate : 384 Kbps
Channel(s) : 2 channels
Channel positions : Front: L R
Sampling rate : 48.0 KHz
Bit depth : 16 bits
Compression mode : Lossy
Stream size : 233 MiB (5%)
Title : 2.0 @ 384 kbps
Language : Ukrainian
Default : Yes
Forced : Yes

Audio #2
ID : 3
Format :
Format/Info : Digital Theater Systems
Codec ID : A_DTS
Duration : 1h 24mn
Bit rate mode : Constant
Bit rate : 754 Kbps
Channel(s) : 6 channels
Channel positions : Front: L C R, Side: L R, LFE
Sampling rate : 48.0 KHz
Bit depth : 24 bits
Compression mode : Lossy
Stream size : 458 MiB (10%)
Title : 5.1 @ 754 kbps
Language : English
Default : No
Forced : No

Text
ID : 4
Format : UTF-8
Codec ID : S_TEXT/UTF8
Codec ID/Info : UTF-8 Plain Text
Language : English
Default : No
Forced : No
Світлини:






Джерело: &
Особиста оцінка: 0 - не дивився

Подяка панові Skiff за запис української доріжки


 Трекер:    Зареєстрований   

Завантажити / скачати фільм українською



відео для новачків



 Зареєстрований:   2012-07-22 15:46
 Розмір:   4.59 GB 
 Оцінка фільму:   8/10 (Голосів: 2)
   
Інші релізи
   Вуличні танці 2 / StreetDance 2 (2012) Ukr/Eng Skiff  2 / 0   1.57 GB   2012-07-20 21:00 
leroykendall 
Модератор HD


З нами з: 03.01.11
Востаннє: 20.11.16
Повідомлень: 749

2012-07-22 17:39  
xfsthe написано:
розмір кадру: 1288 х 688

Може 1280 х 688?

Додано через 2 хвилини:

xfsthe написано:
720p Ukr/Eng | Sub Eng | Line

У тему і заголовок треба додати " | Line"

xfsthe 
Оцифрування книг Гуртом
Оцифрування книг Гуртом


З нами з: 13.02.11
Востаннє: 05.12.16
Повідомлень: 279

2012-07-22 17:54  
leroykendall написано:
Може 1280 х 688?

leroykendall написано:
У тему і заголовок треба додати " | Line"

виправив і додав

Ваш часовий пояс: GMT + 2 Години

Нова тема   Відповісти