Завантажити та скачати торренти українською


Віктор Павлік - Слава Богу! (2004) [FLAC] | Pop Folk

Нові коментарі

Нова тема   Відповісти
Автор Повідомлення
ssTAss 
Модератор музики


З нами з: 05.07.08
Востаннє: 03.12.16
Повідомлень: 10932

2012-07-22 13:37  
Віктор Павлік - Слава Богу! (2004) [FLAC] | Pop Folk

Віктор Павлік - Слава Богу! (2004) [FLAC] | Pop Folk


Стиль: Pop Folk
Країна, місто: Україна, Теребовля (Тернопільська обл.)
Сайти: Офіційний сайт
Видавець: Grolis
Виконавці:
Павлік Віктор Франкович
Пісні:
    1. Добрий вечір
    2. Новий рік
    3. Небо і земля
    4. Во Віфлеємі нині новина
    5. По всьому світу стала новина
    6. Бог ся рождає
    7. В Віфлеємі новина
    8. Нова радість стала
    9. Різдвяна
    10. Слава Богу!
    11. Алілуя (Різдвяна)
    12. Темна ніч покрила місто
    13. Різдво мого кохання
    14. Казкова ніч Різдва
    15. Господь є добрий пастор мій
    16. Твоя любов
    17. Снігова завіса
log
Exact Audio Copy V0.99 prebeta 3 from 28. July 2007

EAC extraction logfile from 17. November 2007, 10:32

Victor.Pavlik / Slava.Bogu

Used drive : Optiarc DVD RW AD-7173A Adapter: 0 ID: 0

Read mode : Secure
Utilize accurate stream : Yes
Defeat audio cache : No
Make use of C2 pointers : No

Combined read/write offset correction : 0
Overread into Lead-In and Lead-Out : No
Fill up missing offset samples with silence : Yes
Delete leading and trailing silent blocks : No
Null samples used in CRC calculations : Yes
Used interface : Native Win32 interface for Win NT & 2000

Used output format : Internal WAV Routines
Sample format : 44.100 Hz; 16 Bit; Stereo

TOC of the extracted CD

Track | Start | Length | Start sector | End sector
---------------------------------------------------------
1 | 0:00.00 | 3:37.36 | 0 | 16310
2 | 3:37.36 | 4:02.29 | 16311 | 34489
3 | 7:39.65 | 3:03.40 | 34490 | 48254
4 | 10:43.30 | 4:39.16 | 48255 | 69195
5 | 15:22.46 | 3:27.12 | 69196 | 84732
6 | 18:49.58 | 4:00.04 | 84733 | 102736
7 | 22:49.62 | 4:19.19 | 102737 | 122180
8 | 27:09.06 | 4:32.43 | 122181 | 142623
9 | 31:41.49 | 2:56.15 | 142624 | 155838
10 | 34:37.64 | 4:30.50 | 155839 | 176138
11 | 39:08.39 | 6:32.46 | 176139 | 205584
12 | 45:41.10 | 4:14.05 | 205585 | 224639
13 | 49:55.15 | 3:25.33 | 224640 | 240047
14 | 53:20.48 | 3:46.64 | 240048 | 257061
15 | 57:07.37 | 5:09.07 | 257062 | 280243
16 | 62:16.44 | 3:45.29 | 280244 | 297147
17 | 66:01.73 | 3:33.65 | 297148 | 313187

Range status and errors

Selected range

Filename E:\EAC_here\Victor.Pavlik.-.Slava.Bogu.wav

Peak level 99.1 %
Range quality 99.9 %
Copy CRC A3D518A6
Copy OK

No errors occurred

End of status report
fooCDtect
fooCDtect - foobar2000 + auCDtect, baralgin.

auCDtect: CD records authenticity detector, version 0.8.2
Copyright (c) 2004 Oleg Berngardt. All rights reserved.
Copyright (c) 2004 Alexander Djourik. All rights reserved.

mode: 0

===========================================
Track: 01 - Добрий вечiр
Quality: CDDA 100%
===========================================
Track: 02 - Новий рiк
Quality: CDDA 100%
===========================================
Track: 03 - Небо i земля
Quality: CDDA 100%
===========================================
Track: 04 - Во Вiфлеємi нинi новина
Quality: CDDA 100%
===========================================
Track: 05 - По всьому свiту стала новина
Quality: CDDA 100%
===========================================
Track: 06 - Бог ся рождає
Quality: CDDA 99%
===========================================
Track: 07 - В Вiфлеємi новина
Quality: CDDA 100%
===========================================
Track: 08 - Нова радiсть стала
Quality: CDDA 99%
===========================================
Track: 09 - Рiздвяна
Quality: CDDA 100%
===========================================
Track: 10 - Слава Богу
Quality: CDDA 100%
===========================================
Track: 11 - Алiлуя (Рiздвяна)
Quality: CDDA 99%
===========================================
Track: 12 - Темна нiч покрила мiсто
Quality: CDDA 99%
===========================================
Track: 13 - Рiздво мого кохання
Quality: CDDA 100%
===========================================
Track: 14 - Казкова нiч рiздва
Quality: CDDA 100%
===========================================
Track: 15 - Господь є добрий пастор мiй
Quality: CDDA 100%
===========================================
Track: 16 - Твоя любов
Quality: CDDA 100%
===========================================
Track: 17 - Снiгова завiса
Quality: CDDA 99%
===========================================
Тривалість: 01:09:36
Мова: українська
Аудіо-кодек: FLAC
Бітрейт: 1005 кб/с
Джерело: інший трекер

Якщо Ви справді бажаєте підтримати українське - після прослуховування, якщо музика вам сподобалась,
придбайте ліцензійний диск.
Підтримаймо вітчизняних виконавців!


Срібний реліз (на рейтинг впливає 50% завантаженого)
 Трекер:    Зареєстрований   

Завантажити / скачати українську музику



відео для новачків



 Зареєстрований:   2012-07-22 13:37
 Розмір:   501 MB 
 Оцінка музики:   6.4/10 (Голосів: 10)
   
mr.killer 
Свій


З нами з: 11.08.10
Востаннє: 03.12.16
Повідомлень: 146

2016-04-03 21:35  
Поділіться будь ласка сканами з диску. Завчасно дякую
Ваш часовий пояс: GMT + 2 Години

Нова тема   Відповісти