Завантажити та скачати торренти українською


Golem! - Citizen Boris (2009) [FLAC] | Folk / Klezmer

Нові коментарі

Нова тема   Відповісти
Останній раз роздавалося yuriysh (2016-12-03)
Автор Повідомлення
ssTAss 
Модератор музики


З нами з: 05.07.08
Востаннє: 03.12.16
Повідомлень: 10932

2012-07-21 16:44  
Golem! - Citizen Boris (2009) [FLAC] | Folk / Klezmer

Golem! - Citizen Boris (2009) [FLAC] | Folk / Klezmer


Стиль: Folk, Jewish, Gypsy, Klezmer, Rock
Країна, місто: США, Нью-Йорк
Сайти: Офіційний сайт
Видавець: Jdub Records
Виконавці:
Annette Ezekiel Kogan - вокал, акордеон
Aaron Diskin- вокал, тамбурин
Jeremy Brown - скрипка
Curtis Hasselbring - тромбон
Taylor Bergren-Chrisman - бас
Tim Monaghan - ударні
Пісні:
    1. Train Across Ukraine
    2. Mirror Mirror
    3. Tucheses And Nenes
    4. Come To Me
    5. Meat Street
    6. Zingarella
    7. Tell Her You Love Her
    8. Citizen Boris
    9. Lullaby
    10. Chervona Ruta
    11. Balkan Espanol
log
Exact Audio Copy V0.99 prebeta 4 from 23. January 2008

Отчёт EAC об извлечении, выполненном 15. августа 2011, 11:13

Golem / Citizen Boris

Дисковод: MATSHITADVD-RAM UJ-852S Adapter: 0 ID: 0

Режим чтения : Достоверность
Использование точного потока : Да
Отключение кэша аудио : Да
Использование указателей C2 : Нет

Коррекция смещения при чтении : 102
Способность читать области Lead-in и Lead-out : Нет
Заполнение пропущенных сэмплов тишиной : Да
Удаление блоков с тишиной в начале и конце : Нет
При вычислениях CRC использовались нулевые сэмплы : Да
Интерфейс : Установленный внешний ASPI-интерфейс

Выходной формат : Внутренние WAV-операции
Формат сэмплов : 44.100 Гц; 16 бит; стерео
Смещение при сжатии : 0

TOC извлечённого CD

Трек | Старт | Длительность | Начальный сектор | Конечный сектор
---------------------------------------------------------------------
1 | 0:00.00 | 3:37.25 | 0 | 16299
2 | 3:37.25 | 2:57.03 | 16300 | 29577
3 | 6:34.28 | 3:21.00 | 29578 | 44652
4 | 9:55.28 | 4:01.69 | 44653 | 62796
5 | 13:57.22 | 2:42.12 | 62797 | 74958
6 | 16:39.34 | 4:12.11 | 74959 | 93869
7 | 20:51.45 | 3:05.38 | 93870 | 107782
8 | 23:57.08 | 3:50.49 | 107783 | 125081
9 | 27:47.57 | 3:23.27 | 125082 | 140333
10 | 31:11.09 | 3:05.11 | 140334 | 154219
11 | 34:16.20 | 4:06.72 | 154220 | 172741

Характеристики диапазона извлечения и сообщения об ошибках

Выбранный диапазон

Имя файла C:\Users\Igot\Desktop\Golem - Citizen Boris\Golem - Citizen Boris.wav

Пиковый уровень 96.6 %
Качество диапазона 100.0 %
CRC копии 5BEBB50C
Копирование... OK

Ошибок не произошло

Конец отчёта
fooCdtect
fooCDtect - foobar2000 + auCDtect, baralgin.

auCDtect: CD records authenticity detector, version 0.8.2
Copyright (c) 2004 Oleg Berngardt. All rights reserved.
Copyright (c) 2004 Alexander Djourik. All rights reserved.

mode: 0

===========================================
Track: 01 - Train Across Ukraine
Quality: CDDA 100%
===========================================
Track: 02 - Mirror Mirror
Quality: CDDA 100%
===========================================
Track: 03 - Tucheses and Nenes
Quality: CDDA 99%
===========================================
Track: 04 - Come To Me
Quality: CDDA 100%
===========================================
Track: 05 - Meat Street
Quality: CDDA 100%
===========================================
Track: 06 - Zingarella
Quality: CDDA 100%
===========================================
Track: 07 - Tell Her You Love Her
Quality: CDDA 99%
===========================================
Track: 08 - Citizen Boris
Quality: CDDA 100%
===========================================
Track: 09 - Lullaby
Quality: CDDA 100%
===========================================
Track: 10 - Chervona Ruta
Quality: CDDA 100%
===========================================
Track: 11 - Balkan Espanol
Quality: CDDA 100%
===========================================
Тривалість: 00:38:23
Мова: англійська (переважно) + іврит чи ідіш, російська (5), українська (10), іспанська (11)
Аудіо-кодек: FLAC
Бітрейт: 938 кб/с
Джерело: рутрекер
Додаткова інформація:
англійською
This 6 piece “Gypsy Punk Gem” (SPIN) is renowned for electrifying dance floors with their globetrotting goulash of Jewish, Slavic, and Gypsy songs. Citizen Boris takes the band a step further into the present with original songs in English, punctuated by the edgy re-creation of traditional folk music that Golem has come to be known for. Mixing old world and new without compromising either, the album is a startling portrait of an ideal world where there is no need only to ghettoize or assimilate.


Срібний реліз (на рейтинг впливає 50% завантаженого)
 Трекер:    Зареєстрований   

Завантажити / скачати українську музику



відео для новачків



 Зареєстрований:   2012-07-21 16:45
 Розмір:   258 MB 
 Оцінка музики:   4.6/10 (Голосів: 5)
   
Ваш часовий пояс: GMT + 2 Години

Нова тема   Відповісти