Завантажити та скачати торренти українською


Екстракт / Extract (2009) 720p Ukr/Eng

Нові коментарі

Нова тема   Відповісти
Автор Повідомлення
petrok13 
Відео Гуртом - підтримка та поширення
Відео Гуртом - підтримка та поширення


З нами з: 29.11.08
Востаннє: 06.12.16
Повідомлень: 173

2012-07-21 14:10  
Екстракт / Extract (2009) 720p Ukr/Eng

Екстракт / Extract (2009) 720p Ukr/Eng


Жанр: комедія, кримінальний, романтичний
Країна: США



Кіностудія / кінокомпанія: Miramax Films
Режисер: Майк Джадж
Актори: Джейсон Бейтман, Міла Куніс, Бен Aффлек, Крістен Уіг, Джей Кей Сіммонс, Метт Шульц

Сюжет:
Фільм про життєві хитросплетіння чоловіка середнього віку. Йому набридла робота, набридла дружина, та й усе життя в цілому йому теж набридло. Напевно, це і називають в психології кризою середнього віку, або щось на зразок того. Герой фільму керує фабрикою з виробництва екстрактів, і хоче її продати. І тут починаються пригоди - нещасний випадок на виробництві з послідуючим травмуванням, поява на фабриці новенької та дуже гарненької працівниці, все більші непорозуміння з дружиною. Сіре життя головного героя стає таким яскравим, що аж сліпить.


Тривалість: 01:31:46
Якість:
Відео:
кодек:
розмір кадру: 1280x692
бітрейт: 5300 кб/с

Аудіо # 1:
мова: українська
переклад: двоголосий закадровий
кодек: 5.1
бітрейт: 448 кб/с

Аудіо # 2:
мова: англійська
переклад: оригінал
кодек: 5.1
бітрейт: 448 кб/с

Джерело озвучення:
MediaInfo

Z:\Users\Petro\Videos\Extract (2009) [ukr,eng] 720p [Hurtom].mkv
General
Unique ID : 201547329227685214868073099704205351091 (0x97A09A89455764ECBB8DAA2A9C2898B3)
Complete name : C:\Users\Petro\Videos\Extract\Extract (2009) [ukr,eng] 720p [Hurtom].mkv
Format : Matroska
File size : 3.97 GiB
Duration : 1h 31mn
Overall bit rate : 6 197 Kbps
Movie name : Extract (2009) - Release for HDCLUB
Encoded date : UTC 2012-07-22 08:14:59
Writing application : mkvmerge v5.7.0 ('The Whirlwind') built on Jul 8 2012 20:08:51
Writing library : libebml v1.2.3 + libmatroska v1.3.0
Video #1
ID : 1
Format : AVC
Format/Info : Advanced Video Codec
Format profile : [email protected]
Format settings, CABAC : Yes
Format settings, ReFrames : 9 frames
Codec ID : V_MPEG4/ISO/AVC
Duration : 1h 31mn
Bit rate : 5 300 Kbps
Width : 1 280 pixels
Height : 692 pixels
Display aspect ratio : 1.850
Frame rate : 23.976 fps
Color space : YUV
Chroma subsampling : 4:2:0
Bit depth : 8 bits
Scan type : Progressive
Bits/(Pixel*Frame) : 0.250
Stream size : 3.32 GiB (84%)
Title : Release for HDCLUB
Writing library : core 79 r1360M 528c100
Encoding settings : cabac=1 / ref=9 / deblock=1:-3:-3 / analyse=0x3:0x133 / me=esa / subme=10 / psy=1 / psy_rd=0.8:0.1 / mixed_ref=1 / me_range=48 / chroma_me=1 / trellis=2 / 8x8dct=1 / cqm=0 / deadzone=21,11 / chroma_qp_offset=-3 / threads=12 / nr=0 / decimate=0 / mbaff=0 / constrained_intra=0 / bframes=7 / b_pyramid=0 / b_adapt=2 / b_bias=0 / direct=3 / wpredb=1 / wpredp=2 / keyint=250 / keyint_min=25 / scenecut=40 / rc_lookahead=40 / rc=2pass / mbtree=1 / bitrate=5300 / ratetol=1.0 / qcomp=0.60 / qpmin=10 / qpmax=51 / qpstep=4 / cplxblur=20.0 / qblur=0.5 / ip_ratio=1.40 / aq=1:0.80
Language : English
Audio #2
ID : 2
Format : AC-3
Format/Info : Audio Coding 3
Mode extension : CM (complete main)
Codec ID : A_AC3
Duration : 1h 31mn
Bit rate mode : Constant
Bit rate : 448 Kbps
Channel(s) : 6 channels
Channel positions : Front: L C R, Side: L R, LFE
Sampling rate : 48.0 KHz
Bit depth : 16 bits
Compression mode : Lossy
Stream size : 294 MiB (7%)
Title : UKR, 5.1, 448 kbps
Language : Ukrainian
Audio #3
ID : 3
Format : AC-3
Format/Info : Audio Coding 3
Mode extension : CM (complete main)
Codec ID : A_AC3
Duration : 1h 31mn
Bit rate mode : Constant
Bit rate : 448 Kbps
Channel(s) : 6 channels
Channel positions : Front: L C R, Side: L R, LFE
Sampling rate : 48.0 KHz
Bit depth : 16 bits
Compression mode : Lossy
Stream size : 294 MiB (7%)
Title : Original, 5.1, 448 kbps
Language : English
Скріншоти


Джерело: &
Особиста оцінка: 0 - не дивився


 Трекер:    Зареєстрований   

Завантажити / скачати фільм українською



відео для новачків



 Зареєстрований:   2012-07-22 10:52
 Розмір:   3.97 GB 
 Оцінка фільму:   9.8/10 (Голосів: 9)
   
Інші релізи
   Екстракт / Extract (2009) NemoInFire  3 / 0   1.46 GB   2012-07-20 16:38 
braveboy 
Відео Гуртом - команда HD
Відео Гуртом - команда HD


З нами з: 15.06.10
Востаннє: 29.10.16
Повідомлень: 958

2012-07-22 04:33  
виправ
petrok13 написано:
кодек: MPEG-4
на

відключи
petrok13 написано:
Muxing mode : Header stripping
ось інструкція http://toloka.to/t31095
petrok13 
Відео Гуртом - підтримка та поширення
Відео Гуртом - підтримка та поширення


З нами з: 29.11.08
Востаннє: 06.12.16
Повідомлень: 173

2012-07-22 10:57  
Торрент оновлено!
DiGen 
Модератор HD та координатор Команди HD
Модератор HD та координатор Команди HD


З нами з: 12.11.09
Востаннє: 24.06.13
Повідомлень: 1452

2012-07-22 13:45  
petrok13 написано:
Release for HDCLUB

Хіба не видаляється....

y2002 
Новенький


З нами з: 12.04.10
Востаннє: 02.12.16
Повідомлень: 5

2015-03-28 18:43  
а е у когос озвучка з нло тб ?
Ваш часовий пояс: GMT + 2 Години

Нова тема   Відповісти