Завантажити та скачати торренти українською


Сім'я Джетсонів / Jetsons: The Movie (1990) Ukr/Eng

Нові коментарі

Нова тема   Відповісти
Автор Повідомлення
rooster 
Відео Гуртом - фільмокрай
Відео Гуртом - фільмокрай


З нами з: 23.04.09
Востаннє: 04.12.16
Повідомлень: 1328

2012-07-18 18:49  
Сім'я Джетсонів / Jetsons: The Movie (1990) Ukr/Eng

Сім'я Джетсонів / Jetsons: The Movie (1990) Ukr/Eng


Жанр: сімейний, анімація, комедія
Країна: США



Кіностудія / кінокомпанія: Hanna-Barbera Productions, Wang Film Productions Company
Режисер: Джозеф Барбера, Вільям Ханна
Ролі озвучують: Джордж О’Генлон, Мел Бланк, Пенні Сінглтон, Тіффані ,Патрік Зіммерман, Дон Мессік, Джин Вандер Пул

Сюжет:
Космічні пригоди Джорджа Джетсона, якого призначили віце-президентом компанії Спейслі Спрокетс, і відправили зі своєю сім'єю працювати на орбітальний гірничорудний астероїд ...


Тривалість: 01:18:42
Якість:
Відео:
кодек:
розмір кадру: 688x368
бітрейт: 2256 кб/с

Аудіо # 1:
мова: українська
переклад: багатоголосий закадровий
кодек: 2.0
бітрейт: 192 кб/с
Увага: на відрізках 1:06:30 - 1:06:47 та 1:07:03 - 1:07:16 відсутня озвучка. Наразі бодай якихось сабів для цього мульту не знайшов, якщо хтось їх люб'язно надасть - зроблю для цих відрізків субтитри

Аудіо # 2:
мова: англійська
переклад: оригінал
кодек: 2.0
бітрейт: 192 кб/с

Джерело озвучення:


Скріншоти


Джерело:
Відео:

За наданий звукозапис висловлюю подяку панові urij546724


Срібний реліз (на рейтинг впливає 50% завантаженого)
 Трекер:    Зареєстрований   

Завантажити / скачати мультфільм українською



відео для новачків



 Зареєстрований:   2012-07-18 18:49
 Розмір:   1.46 GB 
 Оцінка мультфільму:   9.5/10 (Голосів: 15)
   
Інші релізи
   Сім'я Джетсонів / Jetsons: The Movie (1990) 1080p Roman4ik75  1 / 0   3.02 GB   2016-02-14 19:07 
fl_fl 
Відео Гуртом - фільмокрай
Відео Гуртом - фільмокрай


З нами з: 26.05.09
Востаннє: 10.12.16
Повідомлень: 3047

2012-07-18 20:40  
Дивно. Чому Джетсонів назвали Джейсонами?
rooster 
Відео Гуртом - фільмокрай
Відео Гуртом - фільмокрай


З нами з: 23.04.09
Востаннє: 04.12.16
Повідомлень: 1328

2012-07-18 21:02  
yuraflash написано:
Дивно. Чому Джетсонів назвали Джейсонами?

Теж не знаю. Назву зкопіював з вікі, самого мультфільму не бачив

eXteSy- 
VIP


З нами з: 06.04.09
Востаннє: 11.12.16
Повідомлень: 1458

2012-07-18 22:29  
Веселий мульт. Переглянути розслабленому і не напрягаючи мізки, - саме те, що лікар прописав.
urij546724 
Відео Гуртом - фільмокрай
Відео Гуртом - фільмокрай


З нами з: 16.03.10
Востаннє: 10.12.16
Повідомлень: 5222

2012-07-19 09:42  
rooster, а чому не робив з HD?
Є ж 720p
General
Unique ID : 222464832607677621170094144685498472205 (0xA75D2B13B1158A2982148086C828970D)
Complete name : thejetsonsmovie.mkv
Format : Matroska
File size : 4.37 GiB
Duration : 1h 18mn
Overall bit rate : 7 959 Kbps
Movie name : thejetsonsmovie
Encoded date : UTC 2011-02-14 01:52:15
Writing application : mkvmerge v4.3.0 (\\\'Escape from the Island\\\') built on Sep 5 2010 10:30:51
Writing library : libebml v1.0.0 + libmatroska v1.0.0

Video
ID : 1
Format : AVC
Format/Info : Advanced Video Codec
Format profile : [email protected]
Format settings, CABAC : Yes
Format settings, ReFrames : 3 frames
Codec ID : V_MPEG4/ISO/AVC
Duration : 1h 18mn
Bit rate mode : Variable
Bit rate : 7 580 Kbps
Maximum bit rate : 25.0 Mbps
Width : 1 280 pixels
Height : 720 pixels
Display aspect ratio : 16:9
Frame rate : 50.000 fps
Color space : YUV
Chroma subsampling : 4:2:0
Bit depth : 8 bits
Scan type : Progressive
Bits/(Pixel*Frame) : 0.164
Stream size : 4.07 GiB (93%)
Writing library : core 105 r1732 2b04482
Encoding settings : cabac=1 / ref=3 / deblock=1:0:0 / analyse=0x3:0x133 / me=umh / subme=7 / psy=1 / psy_rd=1.00:0.00 / mixed_ref=1 / me_range=16 / chroma_me=1 / trellis=1 / 8x8dct=1 / cqm=0 / deadzone=21,11 / fast_pskip=1 / chroma_qp_offset=-2 / threads=12 / sliced_threads=0 / nr=0 / decimate=1 / interlaced=0 / constrained_intra=0 / bframes=3 / b_pyramid=0 / b_adapt=1 / b_bias=0 / direct=1 / weightb=1 / open_gop=0 / weightp=2 / keyint=500 / keyint_min=50 / scenecut=40 / intra_refresh=0 / rc_lookahead=40 / rc=2pass / mbtree=1 / bitrate=7580 / ratetol=1.0 / qcomp=0.60 / qpmin=10 / qpmax=51 / qpstep=4 / cplxblur=20.0 / qblur=0.5 / vbv_maxrate=25000 / vbv_bufsize=25000 / ip_ratio=1.40 / aq=1:1.00 / nal_hrd=vbr

Audio
ID : 2
Format : AC-3
Format/Info : Audio Coding 3
Format profile : Dolby Digital
Mode extension : CM (complete main)
Codec ID : A_AC3
Duration : 1h 18mn
Bit rate mode : Constant
Bit rate : 384 Kbps
Channel(s) : 2 channels
Channel positions : Front: L R
Sampling rate : 48.0 KHz
Bit depth : 16 bits
Compression mode : Lossy
Stream size : 216 MiB (5%)
Правда точно не зрозуміло чи це HDDVD чи HDTV. Ну точно не BD, бо, здається не виходив.

Додано через 3 хвилини 7 секунд:

yuraflash написано:
Чому Джетсонів назвали Джейсонами?

Насправді назвали Сім'я Джетсонів, то я певне на вікі напутав.

rooster 
Відео Гуртом - фільмокрай
Відео Гуртом - фільмокрай


З нами з: 23.04.09
Востаннє: 04.12.16
Повідомлень: 1328

2012-07-19 17:23  
urij546724 написано:
rooster, а чому не робив з HD?

Звідки ти взяв інформацію про HD? Пошукай ретельніше у мережі - і вдень зі свічкою не знайдеш!

urij546724 
Відео Гуртом - фільмокрай
Відео Гуртом - фільмокрай


З нами з: 16.03.10
Востаннє: 10.12.16
Повідомлень: 5222

2012-07-19 17:52  
rooster, ну на бухті є без сідів, але якщо треба, то можу дати посилання на обмінник, де можна завантажити 720p ріп на 4Гб з англійською доріжкою у 2.0 з досить непоганою швидкістю (~ 500 кб\с)
Ваш часовий пояс: GMT + 2 Години

Нова тема   Відповісти