Завантажити та скачати торренти українською


Гнів Титанів / Wrath of the Titans (2012) 720p-mini

Нові коментарі

Нова тема   Відповісти
Останній раз роздавалося Drool (2016-12-08)
Автор Повідомлення
Drool 
VIP


З нами з: 17.04.10
Востаннє: 08.12.16
Повідомлень: 1267

2012-07-18 17:20  
Гнів Титанів / Wrath of the Titans (2012) 720p-mini

Жанр: бойовик, фентезі, пригодницький
Країна: США



Кіностудія / кінокомпанія: Legendary Pictures, Warner Bros. Pictures, Thunder Road
Режисер: Джонатан Лібесман
Актори: Сем Вортінгтон, Ліам Нісон, Рейф Файнс, Розамунд Пайк, Білл Найї, Денні Х'юстон, Тобі Кеббелл та інші.

Сюжет:
Минуло десять років після героїчної перемоги Персея над морським чудовиськом Кракеном. Тепер він живе спокійним життям сільського рибалки і виховує свого 10-річного сина. Тим часом, між Богами і Титанами на чолі з Кроносом, батьком правлячих братів Зевса, Аїда і Посейдона, розгоряється битва за владу.

Персей не може залишатися осторонь, коли Аїд разом з сином Зевса, Аресом, укладають угоду з Кроносом, щоб разом знищити Зевса. Сила Титанів зростає, тоді як Зевс втрачає свою могутність і владу, а по Землі розкидається пекло підземного світу. Разом з принцесою Андромедою, сином Посейдона, напівбогом Агенором, і скинутим богом Гефестом, Персей вирушає у небезпечну і відважну подорож в підземний світ, щоб врятувати Зевса, повалити Титанів і зберегти людський рід.


Тривалість: 01:39:31
Якість: 720p-mini
Відео:
кодек:
розмір кадру: 1280x720
бітрейт: 3621 кб/с

Аудіо:
мова: українська
переклад: професійний дубльований
кодек: 5.1
бітрейт: 448 кб/с

Джерело озвучення:
MediaInfo
General
Unique ID : 292692894636159780149669268097806453862 (0xDC3299DD07F16F6C4843C17798F54C66)
Complete name : /mnt/disk_d/Video/Films/Wrath.of.the.Titans.2012D.Ukr..720p.UAGet.mkv
Format : Matroska
File size : 2.83 GiB
Duration : 1h 39mn
Overall bit rate : 4 068 Kbps
Movie name : Гнів Титанів / Wrath of the Titans (2012) 720p -=UAGet=-
Encoded date : UTC 2012-07-18 11:11:39
Writing application : mkvmerge v4.8.0 ('I Got The...') built on Aug 22 2011 13:16:28
Writing library : libebml v1.2.0 + libmatroska v1.1.0

Video
ID : 1
Format : AVC
Format/Info : Advanced Video Codec
Format profile : [email protected]
Format settings, CABAC : Yes
Format settings, ReFrames : 15 frames
Codec ID : V_MPEG4/ISO/AVC
Duration : 1h 39mn
Bit rate : 3 621 Kbps
Width : 1 280 pixels
Height : 720 pixels
Display aspect ratio : 16:9
Frame rate mode : Variable
Frame rate : 23.976 fps
Color space : YUV
Chroma subsampling : 4:2:0
Bit depth : 8 bits
Scan type : Progressive
Bits/(Pixel*Frame) : 0.164
Stream size : 2.46 GiB (87%)
Title : Wrath of the Titans (2012) 720p -=UAGet=-
Writing library : core 112
Encoding settings : cabac=1 / ref=16 / deblock=1:-3:-3 / analyse=0x3:0x133 / me=umh / subme=10 / psy=1 / psy_rd=1,00:0,20 / mixed_ref=1 / me_range=32 / chroma_me=1 / trellis=2 / 8x8dct=1 / cqm=0 / deadzone=21,11 / fast_pskip=0 / chroma_qp_offset=-3 / threads=6 / sliced_threads=0 / nr=0 / decimate=1 / interlaced=0 / constrained_intra=0 / bframes=16 / b_pyramid=1 / b_adapt=2 / b_bias=0 / direct=3 / weightb=1 / open_gop=0 / weightp=2 / keyint=240 / keyint_min=23 / scenecut=40 / intra_refresh=0 / rc=2pass / mbtree=0 / bitrate=3621 / ratetol=1,0 / qcomp=1,00 / qpmin=3 / qpmax=51 / qpstep=4 / cplxblur=20,0 / qblur=0,5 / ip_ratio=1,40 / pb_ratio=1,30 / aq=2:0,60
Color primaries : BT.709-5, BT.1361, IEC 61966-2-4, SMPTE RP177
Transfer characteristics : BT.709-5, BT.1361
Matrix coefficients : BT.709-5, BT.1361, IEC 61966-2-4 709, SMPTE RP177

Audio
ID : 2
Format : AC-3
Format/Info : Audio Coding 3
Mode extension : CM (complete main)
Codec ID : A_AC3
Duration : 1h 39mn
Bit rate mode : Constant
Bit rate : 448 Kbps
Channel(s) : 6 channels
Channel positions : Front: L C R, Side: L R, LFE
Sampling rate : 48.0 KHz
Bit depth : 16 bits
Compression mode : Lossy
Stream size : 319 MiB (11%)
Title : Ukrainian Dub
Language : Ukrainian
Скріншоти












Джерело:
Особиста оцінка: 8 - мені сподобалося


Золотий реліз (завантажене не впливає на рейтинг)
 Трекер:    Зареєстрований   

Завантажити / скачати фільм українською



відео для новачків



 Зареєстрований:   2012-07-18 17:20
 Розмір:   2.83 GB 
 Оцінка фільму:   9.6/10 (Голосів: 20)
   
Інші релізи
   Гнів Титанів / Wrath of the Titans (2012) 1080p oleh_oleh  0 / 0   4.36 GB   2012-07-09 23:42 
   Гнів Титанів / Wrath of the Titans (2012) AVC Ukr/Eng AngryBirdsUA  1 / 0   2.18 GB   2012-07-08 23:46 
   Гнів Титанів / Wrath of the Titans (2012) 720p Ukr/Eng | Sub Eng xfsthe  1 / 0   5.18 GB   2012-07-08 13:56 
okzdp 
Поважний учасник


З нами з: 27.05.09
Востаннє: 07.12.16
Повідомлень: 209

2012-07-26 20:57  
Такий собі...
Ваш часовий пояс: GMT + 2 Години

Нова тема   Відповісти