Завантажити та скачати торренти українською


Я приходжу з дощем / I Come with the Rain (2008) 720p Ukr/Eng | Sub Eng

Нові коментарі

Нова тема   Відповісти
Автор Повідомлення
11FrYkT 
Модератор відео


З нами з: 20.02.11
Востаннє: 07.12.16
Повідомлень: 3124

2012-07-18 11:53  
Я приходжу з дощем / I Come with the Rain (2008) 720p Ukr/Eng | Sub Eng

Я приходжу з дощем / I Come with the Rain (2008) 720p Ukr/Eng | Sub Eng

«Чи можете ви знайти шлях до порятунку?»



Жанр: Триллер, Драма
Країна: Франція



Кіностудія / кінокомпанія: Central Films
Режисер: Ан Хунг Тран
Актори: Джош Хартнетт , Еліас Котеас , Такуя Кімура , Шон Юе , Сімон Андре

Сюжет:
Колишнього поліцейського Клайна, а нині приватного детектива часто відвідують страшні спогади про серійного вбивцю Хасфорда. Він приймає пропозицію китайського мільярдера і вирушає до Азії, щоб знайти його сина Шитао — згідно з легендою, той вміє лікувати одним дотиком і лише Шитао може допомогти забути Клайну його кошмари...


Тривалість: 01:54:25
Якість: 720p
Відео:
кодек:
розмір кадру: 1280 x 544
бітрейт: 6933 кб/с

Аудіо # 1:
мова: українська
переклад: багатоголосий закадровий
кодек: 5.1
бітрейт: 384 кб/с

Аудіо # 2:
мова: англійська
переклад: оригінал
кодек: 5.1
бітрейт: 640 кб/с

Субтитри:
мова: англійська
тип: програмні (м'які)
формат: *.srt
MediaInfo
I Come with the Rain (2008) 720p.mkv
General
UniqueID : 204273296098561626870826591565232859834 (0x99AD9B145D5A346EB7F8925E0E21EABA)
Complete name : I Come with the Rain (2008) 720p.mkv
Format : Matroska
File size : 6.49 GiB
Duration : 1h 54mn
Overall bit rate : 8 119 Kbps
Encoded date : UTC 2012-07-15 08:30:44
Writing application : mkvmerge v4.9.1 ('Ich will') зібрано Jul 11 2011 23:53:15
Writing library : libebml v1.2.1 + libmatroska v1.1.1
Video #1
ID : 1
Format : AVC
Format/Info : Advanced Video Codec
Format profile : [email protected]
Format settings, CABAC : Yes
Format settings, ReFrames : 12 frames
Codec ID : V_MPEG4/ISO/AVC
Duration : 1h 54mn
Bit rate : 6 933 Kbps
Width : 1 280 pixels
Height : 544 pixels
Display aspect ratio : 2.35:1
Frame rate : 23.976 fps
Color space : YUV
Chroma subsampling : 4:2:0
Bit depth : 8 bits
Scan type : Progressive
Bits/(Pixel*Frame) : 0.415
Stream size : 5.54 GiB (85%)
Writing library : core 116 r2019 9cc407d
Encoding settings : cabac=1 / ref=12 / deblock=1:-3:-3 / analyse=0x3:0x113 / me=umh / subme=9 / psy=1 / psy_rd=1.20:0.00 / mixed_ref=1 / me_range=16 / chroma_me=1 / trellis=2 / 8x8dct=1 / cqm=0 / deadzone=21,11 / fast_pskip=0 / chroma_qp_offset=-2 / threads=6 / sliced_threads=0 / nr=0 / decimate=0 / interlaced=0 / bluray_compat=0 / constrained_intra=0 / bframes=8 / b_pyramid=2 / b_adapt=2 / b_bias=0 / direct=3 / weightb=1 / open_gop=0 / weightp=2 / keyint=250 / keyint_min=23 / scenecut=40 / intra_refresh=0 / rc=crf / mbtree=0 / crf=17.1 / qcomp=0.60 / qpmin=0 / qpmax=69 / qpstep=4 / ip_ratio=1.40 / pb_ratio=1.30 / aq=1:0.65
Audio #2
ID : 2
Format : AC-3
Format/Info : Audio Coding 3
Mode extension : CM (complete main)
Codec ID : A_AC3
Duration : 1h 54mn
Bit rate mode : Constant
Bit rate : 384 Kbps
Channel(s) : 6 channels
Channel positions : Front: L C R, Side: L R, LFE
Sampling rate : 48.0 KHz
Bit depth : 16 bits
Compression mode : Lossy
Stream size : 314 MiB (5%)
Language : Ukrainian
Audio #3
ID : 3
Format : AC-3
Format/Info : Audio Coding 3
Mode extension : CM (complete main)
Codec ID : A_AC3
Duration : 1h 54mn
Bit rate mode : Constant
Bit rate : 640 Kbps
Channel(s) : 6 channels
Channel positions : Front: L C R, Side: L R, LFE
Sampling rate : 48.0 KHz
Bit depth : 16 bits
Compression mode : Lossy
Stream size : 524 MiB (8%)
Language : English
Text #4
ID : 4
Format : UTF-8
Codec ID : S_TEXT/UTF8
Codec ID/Info : UTF-8 Plain Text
Language : English[/code]
Світлини








Джерело:
Особиста оцінка: 0 - не дивився


 Трекер:    Зареєстрований   

Завантажити / скачати фільм українською



відео для новачків



 Зареєстрований:   2012-07-18 11:53
 Розмір:   6.49 GB 
 Оцінка фільму:   9/10 (Голосів: 5)
   
Інші релізи
BMK12 
Відео Гуртом - підтримка та поширення
Відео Гуртом - підтримка та поширення


З нами з: 13.04.09
Востаннє: 07.12.16
Повідомлень: 2985

2015-02-14 18:22  
Інтригуючий опис Happy Певно треба буде переглянути.
Косячок справжній 
VIP


З нами з: 29.02.12
Востаннє: 07.12.16
Повідомлень: 658

2015-02-14 22:53  
Не скажу, що сподобався, але й не викликав байдужості.
Ваш часовий пояс: GMT + 2 Години

Нова тема   Відповісти