Завантажити та скачати торренти українською


Людина-метелик / The Mothman Prophecies (2002) 720р Ukr/Eng | Sub Eng

Нові коментарі

Нова тема   Відповісти
Автор Повідомлення
11FrYkT 
Модератор відео


З нами з: 20.02.11
Востаннє: 04.12.16
Повідомлень: 3079

2012-07-18 11:43  
Людина-метелик / The Mothman Prophecies (2002) 720р Ukr/Eng | Sub Eng

Людина-метелик / The Mothman Prophecies (2002) 720р Ukr/Eng | Sub Eng

«Заснована на реальних подіях»



Жанр: Драма, Містика, Трилер, Фантастика, Детектив
Країна: США



Кіностудія / кінокомпанія: Lakeshore Entertainment
Режисер: Марк Пелінгтон
Актори: Річард Гір, Девід Ейденберг, Боб Трейсі, Рон Емануел, Дебра Месінг, Том Стовяк, Івон Еріксон, Скот Нуннеллі, Харріс Маккензі, Вілл Петон

Сюжет:
Через два роки після трагічної загибелі дружини талановитий журналіст Джон Клайн опиняється в маленькому містечку в Західній Вірджинії. Він не знає, як він потрапив сюди і що він тут робить, але дивні розповіді місцевих жителів, що бачили дивну істоту, схожа на гігантську людину-метелика, змушують його почати власне розслідування, яке дає абсолютно несподівані результати: страшне створіння з палаючими очима, яке раптово являється людям в сутінках ночі, завжди стає передвісником жахливих трагедій.
Залишаючи людям свої страшні пророкування, воно, здається, хоче врятувати їх, але Клайн повинен в що б то не стало з'ясувати дійсні цілі невловимої примари, адже незадовго до своєї смерті його дружина теж бачила примарну фігуру жахливого людини-метелика.


Тривалість: 01:59:10
Якість: 720p
Відео:
кодек:
розмір кадру: 1280 x 544
бітрейт: 6500 кб/с

Аудіо # 1:
мова: українська
переклад: багатоголосий закадровий
кодек: 5.1
бітрейт: 384 кб/с

Аудіо # 2:
мова: англійська
переклад: оригінал
кодек: 5.1
бітрейт: 640 кб/с

Аудіо # 3:
мова: англійська
переклад: оригінал
кодек: 2.0
бітрейт: 192 кб/с |Commentary|

Субтитри:
мова: англійська
тип: програмні (м'які)
формат: *.srt
MediaInfo
Код:
The Mothman Prophecies (2002) 720р.mkv
   General
      UniqueID : 171418041805971216893638823612210425897 (0x80F5E9FA1597C70C8FE007B301C33029)
      Complete name : The Mothman Prophecies (2002) 720р.mkv
      Format : Matroska
      File size : 6.42 GiB
      Duration : 1h 59mn
      Overall bit rate : 7 713 Kbps
      Movie name : The Mothman Prophecies (2001) 720p
      Encoded date : UTC 2012-07-15 08:54:40
      Writing application : mkvmerge v4.9.1 ('Ich will') зібрано Jul 11 2011 23:53:15
      Writing library : libebml v1.2.1 + libmatroska v1.1.1
      Cover : Yes / Yes
   Video #1
      ID : 1
      Format : AVC
      Format/Info : Advanced Video Codec
      Format profile : [email protected]
      Format settings, CABAC : Yes
      Format settings, ReFrames : 11 frames
      Codec ID : V_MPEG4/ISO/AVC
      Duration : 1h 59mn
      Bit rate : 6 500 Kbps
      Width : 1 280 pixels
      Height : 544 pixels
      Display aspect ratio : 2.35:1
      Frame rate : 23.976 fps
      Color space : YUV
      Chroma subsampling : 4:2:0
      Bit depth : 8 bits
      Scan type : Progressive
      Bits/(Pixel*Frame) : 0.389
      Stream size : 5.28 GiB (82%)
      Writing library : core 124 r2197 69a0443
      Encoding settings : cabac=1 / ref=11 / deblock=1:-3:-2 / analyse=0x3:0x113 / me=umh / subme=11 / psy=1 / psy_rd=1.00:0.00 / mixed_ref=1 / me_range=48 / chroma_me=1 / trellis=2 / 8x8dct=1 / cqm=0 / deadzone=21,11 / fast_pskip=0 / chroma_qp_offset=-2 / threads=12 / sliced_threads=0 / nr=0 / decimate=0 / interlaced=0 / bluray_compat=0 / constrained_intra=0 / bframes=11 / b_pyramid=2 / b_adapt=2 / b_bias=0 / direct=3 / weightb=1 / open_gop=0 / weightp=2 / keyint=250 / keyint_min=23 / scenecut=40 / intra_refresh=0 / rc_lookahead=40 / rc=2pass / mbtree=0 / bitrate=6500 / ratetol=1.0 / qcomp=0.75 / qpmin=0 / qpmax=69 / qpstep=4 / cplxblur=20.0 / qblur=0.5 / vbv_maxrate=50000 / vbv_bufsize=62500 / nal_hrd=none / ip_ratio=1.40 / pb_ratio=1.30 / aq=1:0.90
      Language : English
      Matrix coefficients : BT.709-5, BT.1361, IEC 61966-2-4 709, SMPTE RP177
   Audio #2
      ID : 2
      Format : AC-3
      Format/Info : Audio Coding 3
      Mode extension : CM (complete main)
      Codec ID : A_AC3
      Duration : 1h 59mn
      Bit rate mode : Constant
      Bit rate : 384 Kbps
      Channel(s) : 6 channels
      Channel positions : Front: L C R, Side: L R, LFE
      Sampling rate : 48.0 KHz
      Bit depth : 16 bits
      Compression mode : Lossy
      Stream size : 327 MiB (5%)
      Title : 5.1 @ 384 kbps - Багатоголосий
      Language : Ukrainian
   Audio #3
      ID : 3
      Format : AC-3
      Format/Info : Audio Coding 3
      Mode extension : CM (complete main)
      Codec ID : A_AC3
      Duration : 1h 59mn
      Bit rate mode : Constant
      Bit rate : 640 Kbps
      Channel(s) : 6 channels
      Channel positions : Front: L C R, Side: L R, LFE
      Sampling rate : 48.0 KHz
      Bit depth : 16 bits
      Compression mode : Lossy
      Stream size : 546 MiB (8%)
      Title : 5.1 @ 640 kbps
      Language : English
   Audio #4
      ID : 4
      Format : AC-3
      Format/Info : Audio Coding 3
      Mode extension : CM (complete main)
      Codec ID : A_AC3
      Duration : 1h 59mn
      Bit rate mode : Constant
      Bit rate : 192 Kbps
      Channel(s) : 2 channels
      Channel positions : Front: L R
      Sampling rate : 48.0 KHz
      Bit depth : 16 bits
      Compression mode : Lossy
      Stream size : 164 MiB (2%)
      Title : 2.0 @ 192 kbps - Commentary
      Language : English
   Text #5
      ID : 5
      Format : UTF-8
      Codec ID : S_TEXT/UTF8
      Codec ID/Info : UTF-8 Plain Text
      Language : English
Світлини




Джерело: &
Особиста оцінка: 0 - не дивився


Срібний реліз (на рейтинг впливає 50% завантаженого)
 Трекер:    Зареєстрований   

Завантажити / скачати фільм українською



відео для новачків



 Зареєстрований:   2012-07-18 11:43
 Розмір:   6.42 GB 
 Оцінка фільму:   9.6/10 (Голосів: 9)
   
Інші релізи
Ваш часовий пояс: GMT + 2 Години

Нова тема   Відповісти