Завантажити та скачати торренти українською


Загін Дельта Форс / Загін Дельта Форс 2:Колумбійський зв'язковий / Колумбійські наркоти / The Delta Force / Delta Force 2: The Colombian Connection (1986,1990) Remux/HDTVRip1080i 2xUkr/Eng | sub Eng

Нові коментарі

Нова тема   Відповісти
Автор Повідомлення
urij546724 
Відео Гуртом - фільмокрай
Відео Гуртом - фільмокрай


З нами з: 16.03.10
Востаннє: 05.12.16
Повідомлень: 5222

2012-07-17 15:34  
Загін Дельта / Загін Дельта форс / Загін Дельта 2: Колумбійський зв'язковий / Загін Дельта форс 2: Колумбійські наркоти / The Delta Force / Delta Force 2: The Colombian Connection (1986, 1990) Remux/ 1080i 2xUkr/Eng | sub Eng
Загін Дельта / Загін Дельта Форс / The Delta Force (1986) Remux 2xUkr/Eng | sub Eng
Альтернативний постер:
Слоган:
«The Hijack....The Ordeal....The Rescue...»
«Наліт....Випробування....Порятунок...»


Жанр: екшн, пригодницький, драма, трилер, воєнний
Країна: США (), Ізраєль ()



Кіностудія / кінокомпанія: Golan-Globus Productions
Режисер: Менахем Голан (Menahem Golan)
Актори: Чак Норріс (Chuck Norris), Лі Марвін (Lee Marvin), Мартін Болсам (Martin Balsam), Джої Бішоп (Joey Bishop), Роберт Форстер (Robert Forster), Лейні Казан (Lainie Kazan), Джордж Кеннеді (George Kennedy), Ханна Шігулла (Hanna Schygulla)...
Усі актори та їх фото:
Чак Норріс (Chuck Norris), Лі Марвін (Lee Marvin), Мартін Болсам (Martin Balsam), Джої Бішоп (Joey Bishop), Роберт Форстер (Robert Forster), Лейні Казан (Lainie Kazan), Джордж Кеннеді (George Kennedy), Ханна Шігулла (Hanna Schygulla), Сьюзен Страсберг (Susan Strasberg), Бо Свенсон (Bo Svenson), Роберт Вон (Robert Vaughn), Шеллі Вінтерс (Shelley Winters), Вільям Воллес (William Wallace), Чарльз Грант (Charles Grant), Стів Джеймс (Steve James), Кім Делані (Kim Delaney), Джеррі Вайнсток (Jerry Weinstock), Марвін Фрідман (Marvin Freedman), Боб Левіт (Bob Levit), Келлі Голдберг (Chelli Goldberg), Кріс Елліа (Chris Ellia), Джеррі Лезарус (Jerry Lazarus), Наталі Роз (Natalie Roth), Джеррі Хімен (Jerry Hyman), Ґаель Лехрер (Gael Lehrer), Хенк Лейнінгер (Hank Leininger), Ховард Джексон (Howard Jackson), Ерік Норріс (Eric Norris), Зіпора Пелед (Zipora Peled), Аарон Каплан (Aaron Kaplan), Керолайн Лангфорд (Caroline Langford), Ієгуда Ефрон (Yehuda Efroni), Давид Менахем (David Menachem), Шайке Офір (Shaike Ophir), Ейві Лозях (Avi Loziah), Урі Гавріел (Uri Gavriel), Панос Ніколау (Panos Nicolaou), Елкі Джейкобс (Elki Jacobs), Менахем Їні (Menahem Einy), Ассі Даян (Assi Dayan), Джек Коен (Jack Cohen), Адіб Джашчан (Adib Jahschan), Хейм Сірафі (Haim Sirafi), Моско Алкалай (Mosko Alkalai), Ларрі Прайс (Larry Price), Сьюзен Офір (Susan Ophir), Джек Мессінджер (Jack Messinger), Джанет Харшман (Janet Harshman), Езра Кафрі (Ezra Kafri), Денні Фрідман (Danny Friedman), Річард Селано (Richard Selano), Енді Шульман (Andy Shulman), Джо Сейпл (Joe Sapel), Річард Петерсон (Richard Peterson), Юджин Клейн (Eugene Klein), Альберт Амар (Albert Amar), Бен Еймі Шмюелі (Ben Ami Shmueli), Моті Шірін (Moti Shirin), Іцхак Алон (Yitzhak Aloni), Боаз Офрі (Boaz Ofri), Альберт Ілуз (Albert Iluz), Оснейт Вишинський (Osnat Vishinski), Девід Лешнік (David Leshnik)




Сюжет:
Коли небезпечні терористи захоплюють американських туристів і переправляють їх до Бейруту, президент направляє загін «Дельта» - бригаду першокласних бійців під командуванням полковника Ніка Олександера і майора Скотта Маккоя, щоб звільнити їх.

Незабаром після перекидання на Близький Схід елітний рятувальний загін отримує відомості, що жінок і дітей відпустили, але чоловіків банда злочинців-фанатиків як і раніше утримує в будівлі школи, розташованій на березі моря. Змітаючи все на своєму шляху, крізь вогонь і вибухи загін «Дельта» проривається до табору терористів і, не залишаючи полонених, звільняє заручників. Однак на цьому місія не закінчується. Бандити встигли перевезти кількох заручників в Тегеран, і тепер в битві за їх спасіння час працює проти Олександера та Маккоя.

Вони зобов'язані встигнути - адже на кону життя людей і честь батьківщини.


Збори в США: 17 768 900 доларів
Назва фільму у інших країнах
Delta Force
Австрія / Данія / Фінляндія / Франція / Італія / Іспанія / Західна Німеччина


Amerika's nieuwe helden
Нідерланди (неформальна буквальна назва)


Comando Delta
Бразилія


Delta Kommandó
Угорщина


Dynami Delta
Греція


Força Delta
Португалія


Fuerza Delta
Мексика


La Fuerza Delta
Перу


Mahatz Ha-Delta
Ізраїль (Єврейська назва)


Oddzial Delta
Польща


Styrka Delta Force
Швеція


Zafer topu
Туреччина


Отряд Дельта
Росія
Чи знаєте ви, що...
1) На початку фільму відтворена операція Eagle Claw, про невдалу спробу врятувати американських заручників, які перебували в посольстві США в Ірані у 1980 році.
2) Фільм був знятий цілком в Ізраїлі.
Media info
General
ID : 1 (0x1)
Complete name : E:\The Delta Force, Delta Force 2 The Colombian Connection (1986, 1990) [2xUkr_Eng_AC3_2.0] [Hurtom] by urij546724\The Delta Force (1986) [ukr.TTP for ICTV, Sinemax for 1+1_eng_AC3_2.0] Remux [Hurtom] by urij546724.m2ts
Format : BDAV
Format/Info : Blu-ray Video
File size : 32.9 GiB
Duration : 2h 9mn
Overall bit rate mode : Variable
Overall bit rate : 36.4 Mbps
Maximum Overall bit rate : 35.5 Mbps

Video
ID : 4113 (0x1011)
Menu ID : 1 (0x1)
Format : AVC
Format/Info : Advanced Video Codec
Format profile : [email protected]
Format settings, CABAC : Yes
Format settings, ReFrames : 4 frames
Codec ID : 27
Duration : 2h 9mn
Bit rate mode : Variable
Bit rate : 33.0 Mbps
Maximum bit rate : 38.0 Mbps
Width : 1 920 pixels
Height : 1 080 pixels
Display aspect ratio : 16:9
Frame rate : 23.976 fps
Color space : YUV
Chroma subsampling : 4:2:0
Bit depth : 8 bits
Scan type : Progressive
Bits/(Pixel*Frame) : 0.664
Stream size : 29.8 GiB (91%)

Audio #1
ID : 4352 (0x1100)
Menu ID : 1 (0x1)
Format : AC-3
Format/Info : Audio Coding 3
Mode extension : CM (complete main)
Format settings, Endianness : Big
Codec ID : 129
Duration : 2h 9mn
Bit rate mode : Constant
Bit rate : 192 Kbps
Channel(s) : 2 channels
Channel positions : Front: L R
Sampling rate : 48.0 KHz
Bit depth : 16 bits
Compression mode : Lossy
Stream size : 177 MiB (1%)
Language : Ukrainian

Audio #2
ID : 4353 (0x1101)
Menu ID : 1 (0x1)
Format : AC-3
Format/Info : Audio Coding 3
Mode extension : CM (complete main)
Format settings, Endianness : Big
Codec ID : 129
Duration : 2h 9mn
Bit rate mode : Constant
Bit rate : 192 Kbps
Channel(s) : 2 channels
Channel positions : Front: L R
Sampling rate : 48.0 KHz
Bit depth : 16 bits
Compression mode : Lossy
Stream size : 177 MiB (1%)
Language : Ukrainian

Audio #3
ID : 4354 (0x1102)
Menu ID : 1 (0x1)
Format :
Format/Info : Digital Theater Systems
Format profile : MA / Core
Muxing mode : Stream extension
Codec ID : 134
Duration : 2h 9mn
Bit rate mode : Variable
Bit rate : 1 558 Kbps / 1 510 Kbps
Channel(s) : 2 channels
Channel positions : Front: L R
Sampling rate : 48.0 KHz
Bit depth : 24 bits
Compression mode : Lossless / Lossy
Language : English

Text
ID : 4608 (0x1200)
Menu ID : 1 (0x1)
Format : PGS
Codec ID : 144
Language : English
Тривалість: 02:09:13
Якість: Remux
Відео:
кодек:
розмір кадру: 1920 х 1080
бітрейт: ~ 38 мб/с
частота кадрів: 23.976 к/с (fps)

Аудіо #1:
мова: українська
переклад: двоголосий закадровий
кодек: 2.0
бітрейт: 192 кб/с
озвучено: Так Треба Продакшн на замовлення
запис звуку з каналу:

Аудіо #2:
мова: українська
переклад: багатоголосий закадровий (Віталій Дорошенко)
кодек: 2.0
бітрейт: 192 кб/с
озвучено: студія Сінемакс на замовлення
запис звуку з каналу:

Аудіо #3:
мова: англійська
переклад: оригінал
кодек: 2.0
бітрейт: 1510 кб/с

Субтитри:
мова: англійська
тип: програмні (м'які)
формат: *.pgs

Скріншоти:





Трейлер:
Семпл
Джерело 1_________Джерело 2_________Джерело 3_________Джерело 4
У випадку, якщо з усіх джерел семпл видалять, прохання повідомити мені у ПРИВАТ
Загін Дельта 2: Колумбійський зв'язковий / Загін Дельта Форс 2: Колумбійські наркоти / Delta Force 2: The Colombian Connection (1990) 1080i 2xUkr/Eng
Альтернативні постери:

Слоган:
«Norris and the force are back»
«Норіс і сила повертаються.»


Жанр: екшн, пригодницький, трилер, воєний
Країна: США ()



Кіностудія / кінокомпанія: Cannon Films, Cannon Pictures, Golan-Globus Productions
Режисер: Аарон Норріс (Aaron Norris)
Актори: Чак Норріс (Chuck Norris), Біллі Драго (Billy Drago), Джон П. Райан (John P. Ryan), Річард Джекел (Richard Jaeckel), Бегона Плаза (Begoña Plaza), Пол Перрі (Paul Perri), Гектор Меркадо (Héctor Mercado), Марк Марголіс (Mark Margolis)...
Усі актори та їх фото:
Чак Норріс (Chuck Norris), Біллі Драго (Billy Drago), Джон П. Райан (John P. Ryan), Річард Джекел (Richard Jaeckel), Бегона Плаза (Begoña Plaza), Пол Перрі (Paul Perri), Гектор Меркадо (Héctor Mercado), Марк Марголіс (Mark Margolis), Матео Гомез (Mateo Gómez), Рут де Соса (Ruth de Sosa), Джералд Кастілло (Gerald Castillo), Джофф Брюер (Geoff Brewer), Рік Пріето (Rick Prieto), Шарлін Росс (Sharlene Ross), Майкл Хейт (Michael Heit), Дік Ворлок (Dick Warlock), Кріс Кастільехо (Chris Castillejo), Дейв Бродетт (Dave Brodett), Ріна Рейс (Rina Reyes), Ронні Лазаро (Ronnie Lazaro), Мігель Фаюстмейнн (Miguel Faustmann), Кевін Клепп (Kevin Kleppe), Мімі Сананес Вілхейм (Mimi Sananes Wilheim), Джефф Хеммет (Jeff Hammett), Келлі Вікер (Kelly Wicker), Тревор Кунц (Trevor Kunz), Рюель Вернал (Ruel Vernal), Рональд Дантес (Roland Dantes), Ролдан Аквіно (Roldan Aquino), Кріс Агіляр (Kris Aguilar), Рейнальдо Ґуяо мол. (Reynaldo Guiao Jr.), Альберто Домінгез (Alberto Domínguez), Крейг Джудд (Craig Judd), Майкл Велборн (Michael Welborn), Рой Джудд (Roy Judd), Луїс Справ Кастілло III (Luis Del Castillo III), Ерік Хан (Eric Hahn), Джейм Мігель (Jaime Miguel), Кертіс Картер (Curtis Carter), Піта Ліборо (Pita Liboro), Августо Вікта (Augusto Victa), Грег Хекберт (Greg Hackbarth), Джеррі Лейпуз (Jerry Lapuz), Карлос Террі (Carlos Terry), Алан Вайфідес (Alan Vafides), Майк Ворбіс (Mike Warbis), Колін Мессі (Colin Massey), Стів Браун (Steve Brown), Нілс Круз (Nils Cruz), Дан Фурнад (Dan Furnad), Пітер Ліндсей (Peter Lindsay), Андре Справ Амо (Andre Del Amo), Майкл Міракл (Michael Myracle), Білл Кемпбелл (Bill Campbell), Джо Коллінз (Joe Collins), Томас Девідсон (Thomas Davidson), Джим Діксон (Jim Dixon), Евер Етафо (Ever Etafo), Реймін Хоюмайоюн (Ramin Houmayoun), Нед Хурані (Ned Hourani), Пітер Ледд (Peter Ladd), Том Лейт (Tom Leith), Хейкан Лоснітз (Hakan Losnitz), Джон Мошер (Jon Mosher), Пітер Норлін (Peter Norlin), Ендрю Сєгетзейлер (Andrew Siegenthaler), Майк Сілва (Mike Silva), Берто Спор (Berto Spoor), Дон Вілсон (Don Wilson)


Сюжет:
Відомий наркобарон Рамон Кота бере в заручники американських агентів управління по боротьбі з наркотиками, в тому числі одного з бійців елітного загону «Дельта», і запроторює їх під варту у віддаленому таборі Сан-Карлос.

Загін «Дельта» знову в дії, починається війна з всесильною кокаїновою імперією Рамона Кота. Долаючи всі перешкоди, команда Маккоя з боєм прокладає собі дорогу до фінальної битви, щоб звільнити заручників і покарати ватажка злочинців...


Збори в США: 6 698 361 долар
Назва фільму у інших країнах
Delta Force 2
Данія / Франція / Іспанія / США (коротка назва)


America's Red Army: Delta Force II / Delta Force II / Delta Force II: Operation Crackdown / Spitfire: Delta Force II
США (робоча назва)


Comando Delta 2 - Conexão Colômbia
Бразилія


Delta Force 2: Colombia connection - Il massacro
Італія


Delta Force 2: Operation Stranglehold
(невизначена)


Delta Force II: Huumeviidakko
Фінляндія


Delta kommandó 2. - A kolumbiai kapcsolat
Угорщина


Dynami Delta 2
Греція


Dynami Delta 2: Se mia apostoli hilion kindynon
Греція (відеоназва)


Força Delta 2 - Operação Estrangulamento
Португалія


Fuerza delta 2
Мексика


Kokain Harekati Delta Komandolari
Туреччина


Styrka Delta Force 2
Швеція


Отряд Дельта 2:Колумбийский Связной
Росія
Чи знаєте ви, що...
1) Фільм був знятий повністю на Філіппінах.
2) П'ять членів екіпажу загинули в результаті аварії вертольота під час зйомок. Фільм присвячений їхній пам'яті.
Media info
General
ID : 1 (0x1)
Complete name : E:\The Delta Force, Delta Force 2 The Colombian Connection (1986, 1990) [2xUkr_Eng_AC3_2.0] [Hurtom] by urij546724\Delta Force 2. The Colombian Connection (1990) [ukr.ICTV, 1+1_eng_AC3_2.0] 1080i [Hurtom] by urij546724.ts
Format : MPEG-TS
File size : 8.32 GiB
Duration : 1h 50mn
Overall bit rate mode : Variable
Overall bit rate : 10.8 Mbps
Maximum Overall bit rate : 35.5 Mbps

Video
ID : 4113 (0x1011)
Menu ID : 1 (0x1)
Format : AVC
Format/Info : Advanced Video Codec
Format profile : [email protected]
Format settings, CABAC : Yes
Format settings, ReFrames : 4 frames
Format settings, GOP : M=4, N=12
Codec ID : 27
Duration : 1h 50mn
Bit rate mode : Variable
Bit rate : 9 454 Kbps
Maximum bit rate : 40.0 Mbps
Width : 1 920 pixels
Height : 1 080 pixels
Display aspect ratio : 16:9
Frame rate : 25.000 fps
Standard : PAL
Color space : YUV
Chroma subsampling : 4:2:0
Bit depth : 8 bits
Scan type : Interlaced
Scan order : Top Field First
Bits/(Pixel*Frame) : 0.182
Stream size : 7.31 GiB (88%)
Color primaries : BT.709-5, BT.1361, IEC 61966-2-4, SMPTE RP177
Transfer characteristics : BT.709-5, BT.1361
Matrix coefficients : BT.709-5, BT.1361, IEC 61966-2-4 709, SMPTE RP177

Audio #1
ID : 4352 (0x1100)
Menu ID : 1 (0x1)
Format : AC-3
Format/Info : Audio Coding 3
Mode extension : CM (complete main)
Format settings, Endianness : Big
Codec ID : 129
Duration : 1h 50mn
Bit rate mode : Constant
Bit rate : 192 Kbps
Channel(s) : 2 channels
Channel positions : Front: L R
Sampling rate : 48.0 KHz
Bit depth : 16 bits
Compression mode : Lossy
Stream size : 152 MiB (2%)
Language : Ukrainian

Audio #2
ID : 4353 (0x1101)
Menu ID : 1 (0x1)
Format : AC-3
Format/Info : Audio Coding 3
Mode extension : CM (complete main)
Format settings, Endianness : Big
Codec ID : 129
Duration : 1h 50mn
Bit rate mode : Constant
Bit rate : 192 Kbps
Channel(s) : 2 channels
Channel positions : Front: L R
Sampling rate : 48.0 KHz
Bit depth : 16 bits
Compression mode : Lossy
Stream size : 152 MiB (2%)
Language : Ukrainian

Audio #3
ID : 4354 (0x1102)
Menu ID : 1 (0x1)
Format : AC-3
Format/Info : Audio Coding 3
Format profile : Dolby Digital
Mode extension : CM (complete main)
Format settings, Endianness : Big
Codec ID : 129
Duration : 1h 50mn
Bit rate mode : Constant
Bit rate : 384 Kbps
Channel(s) : 2 channels
Channel positions : Front: L R
Sampling rate : 48.0 KHz
Bit depth : 16 bits
Compression mode : Lossy
Delay relative to video : 250ms
Stream size : 304 MiB (4%)
Language : English
Тривалість: 01:50:38
Якість: 1080i
Відео:
кодек:
розмір кадру: 1920 х 1080
бітрейт: ~ 9454 кб/с
частота кадрів: 25 к/с (fps)

Аудіо #1:
мова: українська
переклад: двоголосий закадровий
кодек: 2.0
бітрейт: 192 кб/с
запис звуку з каналу:
примітка: на відрізках 00:44:58-00:53:44 і 01:01:16-01:06:23 вставлено озвучку студії 1+1

Аудіо #1:
мова: українська
переклад: двоголосий закадровий (Олександр Ігнатуша і Лідія Муращенко)
кодек: 2.0
бітрейт: 192 кб/с
озвучено:
запис звуку з каналу:

Аудіо #2:
мова: англійська
переклад: оригінал
кодек: 2.0
бітрейт: 384 кб/с

Скріншоти:





Трейлери:

Семпл
Джерело 1_________Джерело 2_________Джерело 3_________Джерело 4
У випадку, якщо з усіх джерел семпл видалять, прохання повідомити мені у ПРИВАТ
Подяка:

1. Пану karvai0, Пану Technomate, Пану Hulk1987 і Пану Merdiff за запис звуку з ТБ.


Реліз створено: &

Особиста оцінка: Ще не дивився.

Реліз не зберігатиму. Видалю щойно буде потрібне вільне місце.


Золотий реліз (завантажене не впливає на рейтинг)
 Трекер:    Зареєстрований   

Завантажити / скачати фільм українською



відео для новачків



 Зареєстрований:   2012-07-17 23:31
 Розмір:   41.17 GB 
 Оцінка фільму:   6.1/10 (Голосів: 7)
 Прохання залишати коментарі і не тікати з роздачі.
   
weber 
Почесний гуртомівець


З нами з: 03.08.08
Востаннє: 02.12.16
Повідомлень: 7003

2012-07-17 22:01  
Такі великі назви тем для анонсів краще трохи обрізати в мене на 19 накладається текст.
urij546724 
Відео Гуртом - фільмокрай
Відео Гуртом - фільмокрай


З нами з: 16.03.10
Востаннє: 05.12.16
Повідомлень: 5222

2012-07-17 22:42  
weber написано:
Такі великі назви тем для анонсів краще трохи обрізати в мене на 19 накладається текст.

Але тоді пошук гірший. Sad (2)

bot 
робот


З нами з: 30.09.07
Востаннє: 26.05.05
Повідомлень: 16003

2012-07-17 23:31  
Тему перенесено з Анонси релізів від Відео Гуртом до форуму Фільми в HD


urij546724

karvai0 
Відео Гуртом - запис з ТБ
Відео Гуртом - запис з ТБ


З нами з: 18.01.10
Востаннє: 09.09.16
Повідомлень: 3686

2012-07-18 14:07  
urij546724 написано:
Загін Дельта / Загін Дельта форс / Загін Дельта 2: Колумбійський зв'язковий / Загін Дельта форс 2: Колумбійські наркоти / The Delta Force / Delta Force 2: The Colombian Connection (1986, 1990) Remux/ 1080i Ukr/Eng | sub Eng

2xUkr

urij546724 
Відео Гуртом - фільмокрай
Відео Гуртом - фільмокрай


З нами з: 16.03.10
Востаннє: 05.12.16
Повідомлень: 5222

2012-07-18 17:07  
karvai0 написано:
2xUkr

Дякую. Додав.

weber 
Почесний гуртомівець


З нами з: 03.08.08
Востаннє: 02.12.16
Повідомлень: 7003

2012-07-18 23:20  
urij546724 написано:
Але тоді пошук гірший. Sad (2)

мова лише про анонси, які зверху висять

fyfufrb 
Свій


З нами з: 07.10.09
Востаннє: 06.12.16
Повідомлень: 93

2012-07-19 15:01  
Маю велике бажання скачати фільми - але тих хто роздає на горизонті не помітно Wink (1)
Підкиньте швидкості.
Дякую Happy
.
пс: не качалось -качаю менший реліз на4 гб - качну блюрей вставлю звук і буде щастя =)

urij546724 
Відео Гуртом - фільмокрай
Відео Гуртом - фільмокрай


З нами з: 16.03.10
Востаннє: 05.12.16
Повідомлень: 5222

2012-07-19 20:19  
weber написано:
мова лише про анонси, які зверху висять

Анонси індексує Гугл, тож бажано їх потім не дуже міняти.
fyfufrb написано:
Підкиньте швидкості.

Ну зараз користувач Shurik1855 качає 3 мегабайти в секунду, отже шукай проблему в себе.

fyfufrb 
Свій


З нами з: 07.10.09
Востаннє: 06.12.16
Повідомлень: 93

2012-07-20 00:33  
2 - urij546724
"Ну зараз користувач Shurik1855 качає 3 мегабайти в секунду, отже шукай проблему в себе."
Wide grin
Підняв настрій Happy У мене качає більше ніж 10 мб ( ТОМУ ПРОБЛЕМ НЕМА ) - головне щоб роздавали - в той момент коли я качав - ніхто не був на роздачі - тому качнув Ваш реліз на 4 Гб ( я ж у повідомленні пізніше написав "пс" і там виклав подальші причини не качання релізу . Уважнішим потрібно бути )))
...
До речі - дуже-пре-дуже вдячний за роздачу - УКР дорори просто супер
пс:
... булиб всі роздачі в блюрей на укр качав би тільки на ГУРТОМ !!!
Завжди ваш поціновувач прекрасного українського дубляжу ( особливо від " так треба продакшин" - озвучка дитинства - дуже приємний голос - на замітку - усі фільми з їхнім перекладом - гарантовано шикарні )

Ваш часовий пояс: GMT + 2 Години

Нова тема   Відповісти