Завантажити та скачати торренти українською


Хай щастить, Чаку! / Good Luck Chuck! (2007) 720р Ukr/Eng | sub Eng

Нові коментарі

Нова тема   Відповісти
Автор Повідомлення
11FrYkT 
Модератор відео


З нами з: 20.02.11
Востаннє: 08.12.16
Повідомлень: 3128

2012-07-17 09:19  
Хай щастить, Чаку! / Good Luck Chuck! (2007) 720р Ukr/Eng | sub Eng

Хай щастить, Чаку! / Good Luck Chuck! (2007) 720р Ukr/Eng | sub Eng

«Секс! Секс! Секс! І... Кохання?»



Жанр: комедія, мелодрама, драма
Країна: США, Канада



Кіностудія / кінокомпанія: Lionsgate, Karz Entertainment
Режисер: Марк Хелфріч
Актори: Ден Кук, Джессіка Альба, Ден Фоглер, Коннор Прайс, Трой Джентіле, Маккензі Моуат, Керелайн Форд, Челан Сіммонс, Наталі Морріс

Сюжет:
Молодий дантист задоволений своїм життям помічає дивовижну річ — кожна дівчина після сексу з ним буквально на наступний день знаходить собі ідеального нареченого. Головного героя певний час задовільняє така ситуація, та усе змінюється коли він зустрічає свою половинку.


Тривалість: 01:41:18
Якість: 720p
Відео:
кодек:
розмір кадру: 1280 x 720
бітрейт: 7535 кб/с

Аудіо # 1:
мова: українська
переклад: багатоголосий закадровий
кодек: 5.1
бітрейт: 224 кб/с

Аудіо # 2:
мова: англійська
переклад: оригінал
кодек: 5.1
бітрейт: 1536 кб/с

Аудіо # 3:
мова: англійська
переклад: оригінал
кодек: 2.0
бітрейт: 192 кб/с |Commentary|

Субтитри:
мова: англійська
тип: програмні (м'які)
формат: *.srt
MediaInfo
Код:
Good Luck Chuck (2007) 720р.mkv
   General
      UniqueID : 179329386530862438953330827478088557416 (0x86E99563103D767ABFDB42A6A06C2368)
      Complete name : Good Luck Chuck (2007) 720р.mkv
      Format : Matroska
      File size : 6.69 GiB
      Duration : 1h 41mn
      Overall bit rate : 9 457 Kbps
      Encoded date : UTC 2012-07-17 06:37:31
      Writing application : mkvmerge v4.9.1 ('Ich will') зібрано Jul 11 2011 23:53:15
      Writing library : libebml v1.2.1 + libmatroska v1.1.1
   Video #1
      ID : 1
      Format : AVC
      Format/Info : Advanced Video Codec
      Format profile : [email protected]
      Format settings, CABAC : Yes
      Format settings, ReFrames : 5 frames
      Codec ID : V_MPEG4/ISO/AVC
      Duration : 1h 41mn
      Nominal bit rate : 7 535 Kbps
      Width : 1 280 pixels
      Height : 720 pixels
      Display aspect ratio : 16:9
      Frame rate : 23.976 fps
      Color space : YUV
      Chroma subsampling : 4:2:0
      Bit depth : 8 bits
      Scan type : Progressive
      Bits/(Pixel*Frame) : 0.341
      Writing library : core 58 svn-736M
      Encoding settings : cabac=1 / ref=5 / deblock=1:-4:-4 / analyse=0x3:0x133 / me=umh / subme=7 / brdo=1 / mixed_ref=1 / me_range=16 / chroma_me=1 / trellis=1 / 8x8dct=1 / cqm=2 / deadzone=21,11 / chroma_qp_offset=0 / threads=6 / nr=0 / decimate=1 / mbaff=0 / bframes=3 / b_pyramid=1 / b_adapt=1 / b_bias=0 / direct=3 / wpredb=1 / bime=1 / keyint=250 / keyint_min=25 / scenecut=40(pre) / rc=2pass / bitrate=7535 / ratetol=1.0 / rceq='blurCplx^(1-qComp)' / qcomp=0.60 / qpmin=10 / qpmax=51 / qpstep=4 / cplxblur=20.0 / qblur=0.5 / ip_ratio=1.40 / pb_ratio=1.30 / aq=1:0.4:12.0
      Language : English
   Audio #2
      ID : 2
      Format :
      Format/Info : Advanced Audio Codec
      Format version : Version 4
      Format profile : LC
      Format settings, SBR : Yes
      Format settings, PS : No
      Codec ID : A_AAC
      Duration : 1h 41mn
      Channel(s) : 6 channels
      Channel positions : Front: L C R, Side: L R, LFE
      Sampling rate : 48.0 KHz
      Compression mode : Lossy
      Title : 5.1 @ 224 kb/s
      Language : Ukrainian
   Audio #3
      ID : 3
      Format :
      Format/Info : Digital Theater Systems
      Codec ID : A_DTS
      Duration : 1h 41mn
      Bit rate mode : Constant
      Bit rate : 1 510 Kbps
      Channel(s) : 6 channels
      Channel positions : Front: L C R, Side: L R, LFE
      Sampling rate : 48.0 KHz
      Bit depth : 24 bits
      Compression mode : Lossy
      Stream size : 1.07 GiB (16%)
      Title : English 5.1 @ 1536 Kbps
      Language : English
   Audio #4
      ID : 4
      Format : AC-3
      Format/Info : Audio Coding 3
      Format profile : Dolby Digital
      Mode extension : CM (complete main)
      Codec ID : A_AC3
      Duration : 1h 41mn
      Bit rate mode : Constant
      Bit rate : 192 Kbps
      Channel(s) : 2 channels
      Channel positions : Front: L R
      Sampling rate : 48.0 KHz
      Bit depth : 16 bits
      Compression mode : Lossy
      Stream size : 139 MiB (2%)
      Title : English Commentary 2.0 @ 192 Kbps
      Language : English
   Text #5
      ID : 5
      Format : UTF-8
      Codec ID : S_TEXT/UTF8
      Codec ID/Info : UTF-8 Plain Text
      Language : English
Світлини









Джерело: &
Особиста оцінка: 8 - мені сподобалося


 Трекер:    Зареєстрований   

Завантажити / скачати фільм українською



відео для новачків



 Зареєстрований:   2012-07-17 09:19
 Розмір:   6.69 GB 
 Оцінка фільму:   8.8/10 (Голосів: 9)
   
Інші релізи
assman 
VIP


З нами з: 09.11.09
Востаннє: 08.12.16
Повідомлень: 375

2012-07-18 15:24  
Тупа але весела комедія! Вже й не пам'ятаю, коли дивився, але сподобалась.
DaVinci.ua 
VIP


З нами з: 30.12.11
Востаннє: 07.12.16
Повідомлень: 1091

2014-12-14 11:26  
Класна комедія, особисто мені сподобалась! Дякую.

P.S. кому потрібно в avi, то є на EX.UA!

Ваш часовий пояс: GMT + 2 Години

Нова тема   Відповісти