Завантажити та скачати торренти українською


Мій лагідний та ніжний зомбі / Fido (2006) 720р Ukr/Eng | Sub Eng

Нові коментарі

Нова тема   Відповісти
Автор Повідомлення
11FrYkT 
Модератор відео


З нами з: 20.02.11
Востаннє: 04.12.16
Повідомлень: 3079

2012-07-16 12:53  
Мій лагідний та ніжний зомбі / Fido (2006) 720р Ukr/Eng | Sub Eng

Мій лагідний та ніжний зомбі / Fido (2006) 720р Ukr/Eng | Sub Eng

«Мій лагідний і ніжний зомбі ...»



Жанр: комедійно-романтична горрор-драма
Країна: Канада



Кіностудія / кінокомпанія: Anagram Pictures, Telefilm Canada
Режисер: Ендрю Керрі (Andrew Currie)
Актори: Девід Кей (David Kaye), Ян Скорчевський (Jan Skorzewski), Кевін Таєлл (Kevin Tyell), Енді Паркін (Andy Parkin)... ... Кері-Енн Мосс (Carrie-Anne Mos), Біллі Конолі (Billy Connolly), Ділан Бейкер (Dylan Baker)

Сюжет:
Багато років тому Земля пролетіла крізь хмару космічного пилу, який оживив мертвих і наділив їх ненаситною жадобою людської плоті. Планетою поширювався терор, аж поки було винайдено нашийник, який зробив зомбі керованими і навіть корисними. Завдяки винаходу компанії ZomCon зомбі стали садівниками, молочниками, прислугою, навіть домашніми улюбленцями. ZomCon намагається показати, що ситуація під контролем. Але чи так це насправді?

Тіммі Робінсон так не вважає. Він думає, що світ ввели в оману. Тіммі багато часу проводить у своїй кімнаті, бо він самотній - навіть батьки його не помічають. Тому коли мати купує зомбі, щоб той виконував хатню роботу, це стає для нього сюрпризом. Хлопець дуже дивується, коли нечисть пропонує пограти у м‘яча. А після того як зомбі рятує його від хуліганів, народжується справжня дружба, і Тіммі називає чудовисько Фідо.

Проте коли нашийник Фідо виходить з ладу, сусідам стає непереливки. Щоб розплутати справу, до міста приїжджає містер Боттомс, відомий фахівець із контролю над зомбі...


Тривалість: 01:32:30
Якість: 720p
Відео:
кодек:
розмір кадру: 1280 x 536
бітрейт: 6126 кб/с

Аудіо #1:
мова: українська
переклад: багатоголосий закадровий
кодек: 2.0
бітрейт: 192 кб/с

Аудіо # 2:
мова: англійська
переклад: оригінал
кодек: 5.1
бітрейт: 640 кб/с

Аудіо # 3:
мова: англійська
переклад: оригінал
кодек: 2.0
бітрейт: 192 кб/с |Commentary|

Субтитри:
мова: англійська
тип: програмні (м'які)
формат: *.srt
MediaInfo
Код:
Fido (2006) 720р (1).mkv
   General
      UniqueID : 225782150193476311773942863330549330877 (0xA9DC0F7626636E78B9F385ADCA7673BD)
      Complete name : Fido (2006) 720р (1).mkv
      Format : Matroska
      File size : 4.62 GiB
      Duration : 1h 32mn
      Overall bit rate : 7 153 Kbps
      Movie name : Fido (2006) 720p
      Encoded date : UTC 2012-07-16 10:29:34
      Writing application : mkvmerge v4.9.1 ('Ich will') зібрано Jul 11 2011 23:53:15
      Writing library : libebml v1.2.1 + libmatroska v1.1.1
      Cover : Yes
   Video #1
      ID : 1
      Format : AVC
      Format/Info : Advanced Video Codec
      Format profile : [email protected]
      Format settings, CABAC : Yes
      Format settings, ReFrames : 5 frames
      Codec ID : V_MPEG4/ISO/AVC
      Duration : 1h 32mn
      Bit rate : 6 126 Kbps
      Width : 1 280 pixels
      Height : 536 pixels
      Display aspect ratio : 2.35:1
      Frame rate : 23.976 fps
      Color space : YUV
      Chroma subsampling : 4:2:0
      Bit depth : 8 bits
      Scan type : Progressive
      Bits/(Pixel*Frame) : 0.372
      Stream size : 3.87 GiB (84%)
      Title : Fido (2006) 720p
      Writing library : core 65 r1074M b6bb3d4
      Encoding settings : cabac=1 / ref=5 / deblock=1:-1:-1 / analyse=0x3:0x113 / me=umh / subme=7 / psy_rd=1.0:0.0 / mixed_ref=1 / me_range=16 / chroma_me=1 / trellis=1 / 8x8dct=1 / cqm=1 / deadzone=21,11 / chroma_qp_offset=-2 / threads=8 / nr=0 / decimate=1 / mbaff=0 / bframes=3 / b_pyramid=1 / b_adapt=1 / b_bias=0 / direct=3 / wpredb=1 / keyint=240 / keyint_min=24 / scenecut=40(pre) / rc=2pass / bitrate=6126 / ratetol=1.0 / qcomp=0.60 / qpmin=10 / qpmax=31 / qpstep=4 / cplxblur=20.0 / qblur=0.5 / ip_ratio=1.40 / pb_ratio=1.30 / aq=1:1.00
      Language : English
   Audio #2
      ID : 2
      Format : AC-3
      Format/Info : Audio Coding 3
      Mode extension : CM (complete main)
      Codec ID : A_AC3
      Duration : 1h 32mn
      Bit rate mode : Constant
      Bit rate : 192 Kbps
      Channel(s) : 2 channels
      Channel positions : Front: L R
      Sampling rate : 48.0 KHz
      Bit depth : 16 bits
      Compression mode : Lossy
      Stream size : 127 MiB (3%)
      Title : 2.0 @ 192 kbps - Багатоголосий
      Language : Ukrainian
   Audio #3
      ID : 3
      Format : AC-3
      Format/Info : Audio Coding 3
      Mode extension : CM (complete main)
      Codec ID : A_AC3
      Duration : 1h 32mn
      Bit rate mode : Constant
      Bit rate : 640 Kbps
      Channel(s) : 6 channels
      Channel positions : Front: L C R, Side: L R, LFE
      Sampling rate : 48.0 KHz
      Bit depth : 16 bits
      Compression mode : Lossy
      Stream size : 423 MiB (9%)
      Title : 5.1 @ 640 kbps
      Language : English
   Audio #4
      ID : 4
      Format : AC-3
      Format/Info : Audio Coding 3
      Mode extension : CM (complete main)
      Codec ID : A_AC3
      Duration : 1h 32mn
      Bit rate mode : Constant
      Bit rate : 192 Kbps
      Channel(s) : 2 channels
      Channel positions : Front: L R
      Sampling rate : 48.0 KHz
      Bit depth : 16 bits
      Compression mode : Lossy
      Stream size : 127 MiB (3%)
      Title : 2.0 @ 192 kbps - Commentary
      Language : English
   Text #5
      ID : 5
      Format : UTF-8
      Codec ID : S_TEXT/UTF8
      Codec ID/Info : UTF-8 Plain Text
      Language : English
Світлини









Джерело:
Особиста оцінка: 0 - не дивився


 Трекер:    Зареєстрований   

Завантажити / скачати фільм українською



відео для новачків



 Зареєстрований:   2012-07-16 12:53
 Розмір:   4.62 GB 
 Оцінка фільму:   7.4/10 (Голосів: 7)
   
Інші релізи
MABPIK 
Новенький


З нами з: 29.04.10
Востаннє: 04.12.16
Повідомлень: 23

2012-07-29 10:00  
Відмінний стьоб на фільми про зомбі, рекомендую
Ваш часовий пояс: GMT + 2 Години

Нова тема   Відповісти