Завантажити та скачати торренти українською


Великий каньйон / Grand Canyon (1991) 720р Ukr/Eng | Sub Ukr/Eng

Нові коментарі

Нова тема   Відповісти
Автор Повідомлення
11FrYkT 
Модератор відео


З нами з: 20.02.11
Востаннє: 03.12.16
Повідомлень: 3078

2012-07-15 16:13  
Великий каньйон / Grand Canyon (1991) 720р Ukr/Eng | Sub Ukr/Eng

Великий каньйон / Grand Canyon (1991) 720р Ukr/Eng | Sub Ukr/Eng

«From the director of "The Big Chill." A story of friendship and other natural wonders.»



Жанр: драма, психологічний
Країна: США



Кіностудія / кінокомпанія: Twentieth Century Fox Film Corporation
Режисер: Лоуренс Каздан
Актори: Денні Гловер, Кевін Кляйн, Стів Мартін, Мері МакДоннел, Мері-Луїз Паркер, Алфрі Вудард

Сюжет:
У будь-якої людини є свій ангел-охоронець. І зовсім необов'язково, що в потрібний момент він з'явиться в образі надприродної крилатої істоти. Ним сповна може виявитися звичайна жінка в бейсболці, яка в останню секунду відтягнула тебе від автобуса, що проноситься перед твоїм носом.

Або чорношкірий автомеханік, що ризикнув своїм життям і закрив тебе своїми грудьми від жадаючої крові озброєної шпани. Або близький друг, який не дасть з'їхати з глузду після того, як огидливий грабіжник-наркоман підстрелив тебе і практично зробив інвалідом.

Люди і їх рятівники містичним чином зв'язані між собою. І, можливо, ти сам вже вибраний охоронцем людини, якої ще не знаєш...


Тривалість: 02:14:27
Якість: 720p
Відео:
кодек:
розмір кадру: 1280 x 544
бітрейт: 8298 кб/с

Аудіо # 1:
мова: українська
переклад: двоголосий закадровий
кодек: 2.0
бітрейт: 256 кб/с

Переклад і озвучення виконано:
Кіно

Аудіо # 2:
мова: англійська
переклад: оригінал
кодек: 5.1
бітрейт: 640 кб/с

Субтитри:
мова: українська
тип: програмні (м'які)
формат: *.srt

Субтитри:
мова: англійська
тип: програмні (м'які)
формат: *.srt
MediaInfo
Код:
Grand Canyon (1991) 720р.mkv
   General
      UniqueID : 210358547458492320960760333654562121478 (0x9E419522B490D22FAC1104C369F32706)
      Complete name : Grand Canyon (1991) 720р.mkv
      Format : Matroska
      File size : 8.81 GiB
      Duration : 2h 14mn
      Overall bit rate : 9 381 Kbps
      Movie name : Grand Canyon (1991) 720p
      Encoded date : UTC 2012-07-15 13:53:06
      Writing application : mkvmerge v4.9.1 ('Ich will') зібрано Jul 11 2011 23:53:15
      Writing library : libebml v1.2.1 + libmatroska v1.1.1
   Video #1
      ID : 1
      Format : AVC
      Format/Info : Advanced Video Codec
      Format profile : [email protected]
      Format settings, CABAC : Yes
      Format settings, ReFrames : 11 frames
      Codec ID : V_MPEG4/ISO/AVC
      Duration : 2h 14mn
      Bit rate : 8 298 Kbps
      Width : 1 280 pixels
      Height : 544 pixels
      Display aspect ratio : 2.35:1
      Frame rate : 23.976 fps
      Color space : YUV
      Chroma subsampling : 4:2:0
      Bit depth : 8 bits
      Scan type : Progressive
      Bits/(Pixel*Frame) : 0.497
      Stream size : 7.79 GiB (88%)
      Title : Grand Canyon (1991) 720p
      Writing library : core 120 r2164 da19765
      Encoding settings : cabac=1 / ref=11 / deblock=1:-3:-3 / analyse=0x3:0x113 / me=umh / subme=11 / psy=1 / psy_rd=1.00:0.00 / mixed_ref=1 / me_range=32 / chroma_me=1 / trellis=2 / 8x8dct=1 / cqm=0 / deadzone=21,11 / fast_pskip=1 / chroma_qp_offset=-2 / threads=9 / sliced_threads=0 / nr=0 / decimate=1 / interlaced=0 / bluray_compat=0 / constrained_intra=0 / bframes=8 / b_pyramid=2 / b_adapt=2 / b_bias=0 / direct=1 / weightb=1 / open_gop=0 / weightp=2 / keyint=230 / keyint_min=23 / scenecut=40 / intra_refresh=0 / rc=crf / mbtree=0 / crf=17.5 / qcomp=0.60 / qpmin=0 / qpmax=69 / qpstep=4 / ip_ratio=1.40 / pb_ratio=1.30 / aq=1:1.00
      Language : English
      Color primaries : BT.709-5, BT.1361, IEC 61966-2-4, SMPTE RP177
      Transfer characteristics : BT.709-5, BT.1361
      Matrix coefficients : BT.709-5, BT.1361, IEC 61966-2-4 709, SMPTE RP177
   Audio #2
      ID : 2
      Format : AC-3
      Format/Info : Audio Coding 3
      Mode extension : CM (complete main)
      Codec ID : A_AC3
      Duration : 2h 14mn
      Bit rate mode : Constant
      Bit rate : 256 Kbps
      Channel(s) : 2 channels
      Channel positions : Front: L R
      Sampling rate : 48.0 KHz
      Bit depth : 16 bits
      Compression mode : Lossy
      Stream size : 246 MiB (3%)
      Title : 2.0 @ 256 kbps
      Language : Ukrainian
   Audio #3
      ID : 3
      Format : AC-3
      Format/Info : Audio Coding 3
      Mode extension : CM (complete main)
      Codec ID : A_AC3
      Duration : 2h 14mn
      Bit rate mode : Constant
      Bit rate : 640 Kbps
      Channel(s) : 6 channels
      Channel positions : Front: L C R, Side: L R, LFE
      Sampling rate : 48.0 KHz
      Bit depth : 16 bits
      Compression mode : Lossy
      Stream size : 615 MiB (7%)
      Title : 5.1 @ 640 kbps |Оригінал|
      Language : English
   Text #4
      ID : 4
      Format : UTF-8
      Codec ID : S_TEXT/UTF8
      Codec ID/Info : UTF-8 Plain Text
      Language : Ukrainian
   Text #5
      ID : 5
      Format : UTF-8
      Codec ID : S_TEXT/UTF8
      Codec ID/Info : UTF-8 Plain Text
      Language : English
Світлини







Джерело:
Особиста оцінка: 0 - не дивився


Срібний реліз (на рейтинг впливає 50% завантаженого)
 Трекер:    Зареєстрований   

Завантажити / скачати фільм українською



відео для новачків



 Зареєстрований:   2012-07-15 16:13
 Розмір:   8.81 GB 
 Оцінка фільму:   10/10 (Голосів: 2)
   
Інші релізи
Ваш часовий пояс: GMT + 2 Години

Нова тема   Відповісти